(Modern Classical) Maxence Cyrin - Modern Rhapsodies - 2005, FLAC (tracks+.cue), lossless


 

[Цитировать]

Maxence Cyrin - Modern Rhapsodies
Жанр: Modern Classical
Год выпуска диска: 2005
Производитель диска: France
Аудио кодек: FLAC
Тип рипа: tracks+.cue
Битрейт аудио: lossless
Продолжительность: 37:06
Треклист:
01. Behind The Wheel (original by Depeche Mode)
02. Don't You Want Me (original by Felix)
03. Disco's Revenge (original by Gusto)
04. Sueno Latino (original by Sueño Latino)
05. Windowlicker (original by Aphex Twin)
06. Acid Eiffel (original by Choice (Laurent Garnier & Shazz))
07. Jaguar (original by Rolando)
08. Go (original by Moby)
09. Unfinished Sympathy (original by Massive Attack)
10. The Meltdown (original by Lunatic Asylum)
11. Anasthasia (original by T99)
12. Untitled Track 8 (From Selected Ambient Works Vol II) (original by Aphex Twin)
13. L.F.O. (original by Lfo)
14. Smokebelch II (original by Sabres Of Paradise)
В отличии от этой раздачи - правильный рип.

Лог

X Lossless Decoder version 20110515 (133.1)
XLD extraction logfile from 2011-05-23 19:45:08 -0600
Maxence Cyrin / Modern Rhapsodies
Used drive : HL-DT-ST DVDRW GSA-S10N (revision AP09)
Ripper mode : XLD Secure Ripper
Disable audio cache : OK for the drive with a cache less than 1375KiB
Make use of C2 pointers : NO
Read offset correction : 667
Max retry count : 100
Gap status : Analyzed, Appended
TOC of the extracted CD
Track | Start | Length | Start sector | End sector
---------------------------------------------------------
1 | 00:00:00 | 02:41:38 | 0 | 12112
2 | 02:41:38 | 02:39:52 | 12113 | 24089
3 | 05:21:15 | 02:22:50 | 24090 | 34789
4 | 07:43:65 | 03:05:53 | 34790 | 48717
5 | 10:49:43 | 03:36:49 | 48718 | 64966
6 | 14:26:17 | 02:48:29 | 64967 | 77595
7 | 17:14:46 | 02:52:11 | 77596 | 90506
8 | 20:06:57 | 02:08:45 | 90507 | 100151
9 | 22:15:27 | 02:13:62 | 100152 | 110188
10 | 24:29:14 | 02:39:09 | 110189 | 122122
11 | 27:08:23 | 02:26:03 | 122123 | 133075
12 | 29:34:26 | 02:10:65 | 133076 | 142890
13 | 31:45:16 | 02:13:41 | 142891 | 152906
14 | 33:58:57 | 03:06:68 | 152907 | 166924
List of alternate offset correction values
# | Absolute | Relative | Confidence
------------------------------------------
1 | -7 | -674 | 2
AccurateRip Summary
Track 01 : OK (confidence 5)
Track 02 : OK (confidence 5)
Track 03 : OK (confidence 5)
Track 04 : OK (confidence 5)
Track 05 : OK (confidence 5)
Track 06 : OK (confidence 5)
Track 07 : OK (confidence 5)
Track 08 : OK (confidence 5)
Track 09 : OK (confidence 5)
Track 10 : OK (confidence 5)
Track 11 : OK (confidence 5)
Track 12 : OK (confidence 5)
Track 13 : OK (confidence 5)
Track 14 : OK (confidence 5)
->All tracks accurately ripped.
All Tracks
Album gain : -1.55 dB
Peak : 0.784637
Statistics
Read error : 0
Jitter error (maybe fixed) : 0
Retry sector count : 0
Damaged sector count : 0
Track 01
Filename : /Where FLAC is Born/Maxence Cyrin - Modern Rhapsodies (2006) [FLAC]/01 Behind The Wheel (Originally performed by Depeche Mode).flac
Pre-gap length : 00:02:00
Track gain : -2.62 dB
Peak : 0.771393
CRC32 hash (test run) : 3172D256
CRC32 hash : 3172D256
CRC32 hash (skip zero) : D089FA9F
AccurateRip signature : C2A666B3
->Accurately ripped! (confidence 5)
Statistics
Read error : 0
Jitter error (maybe fixed) : 0
Retry sector count : 0
Damaged sector count : 0
Track 02
Filename : /Where FLAC is Born/Maxence Cyrin - Modern Rhapsodies (2006) [FLAC]/02 Don't You Want Me (Originally performed by Felix).flac
Pre-gap length : 00:01:03
Track gain : -1.63 dB
Peak : 0.754456
CRC32 hash (test run) : 19799F64
CRC32 hash : 19799F64
CRC32 hash (skip zero) : BCCE0B2B
AccurateRip signature : 770729E8
->Accurately ripped! (confidence 5)
Statistics
Read error : 0
Jitter error (maybe fixed) : 0
Retry sector count : 0
Damaged sector count : 0
Track 03
Filename : /Where FLAC is Born/Maxence Cyrin - Modern Rhapsodies (2006) [FLAC]/03 Disco's Revenge (Originally performed by Gusto).flac
Track gain : -2.14 dB
Peak : 0.772339
CRC32 hash (test run) : 2EA43CAB
CRC32 hash : 2EA43CAB
CRC32 hash (skip zero) : A8D77408
AccurateRip signature : 53C51578
->Accurately ripped! (confidence 5)
Statistics
Read error : 0
Jitter error (maybe fixed) : 0
Retry sector count : 0
Damaged sector count : 0
Track 04
Filename : /Where FLAC is Born/Maxence Cyrin - Modern Rhapsodies (2006) [FLAC]/04 Sueño Latino (Originally performed by Sueno Latino).flac
Track gain : -1.25 dB
Peak : 0.771027
CRC32 hash (test run) : E64128CB
CRC32 hash : E64128CB
CRC32 hash (skip zero) : EE633EA2
AccurateRip signature : 11C43486
->Accurately ripped! (confidence 5)
Statistics
Read error : 0
Jitter error (maybe fixed) : 0
Retry sector count : 0
Damaged sector count : 0
Track 05
Filename : /Where FLAC is Born/Maxence Cyrin - Modern Rhapsodies (2006) [FLAC]/05 Windowlicker (Originally performed by Aphex Twin).flac
Pre-gap length : 00:04:19
Track gain : -0.93 dB
Peak : 0.746399
CRC32 hash (test run) : 9EF53648
CRC32 hash : 9EF53648
CRC32 hash (skip zero) : 28BD5091
AccurateRip signature : C0882E25
->Accurately ripped! (confidence 5)
Statistics
Read error : 0
Jitter error (maybe fixed) : 0
Retry sector count : 0
Damaged sector count : 0
Track 06
Filename : /Where FLAC is Born/Maxence Cyrin - Modern Rhapsodies (2006) [FLAC]/06 Acid Eiffel (Originally performed by Choice).flac
Pre-gap length : 00:05:31
Track gain : -0.53 dB
Peak : 0.761383
CRC32 hash (test run) : FBF17267
CRC32 hash : FBF17267
CRC32 hash (skip zero) : F84B66DC
AccurateRip signature : ABC87110
->Accurately ripped! (confidence 5)
Statistics
Read error : 0
Jitter error (maybe fixed) : 0
Retry sector count : 0
Damaged sector count : 0
Track 07
Filename : /Where FLAC is Born/Maxence Cyrin - Modern Rhapsodies (2006) [FLAC]/07 Jaguar (Originally performed by Rolando).flac
Track gain : -0.46 dB
Peak : 0.784637
CRC32 hash (test run) : 697BC317
CRC32 hash : 697BC317
CRC32 hash (skip zero) : 4B93CB48
AccurateRip signature : 5932F1DE
->Accurately ripped! (confidence 5)
Statistics
Read error : 0
Jitter error (maybe fixed) : 0
Retry sector count : 0
Damaged sector count : 0
Track 08
Filename : /Where FLAC is Born/Maxence Cyrin - Modern Rhapsodies (2006) [FLAC]/08 Go (Originally performed by Moby).flac
Pre-gap length : 00:08:38
Track gain : 4.84 dB
Peak : 0.705139
CRC32 hash (test run) : F15D1BB0
CRC32 hash : F15D1BB0
CRC32 hash (skip zero) : 53217809
AccurateRip signature : 965A5DB5
->Accurately ripped! (confidence 5)
Statistics
Read error : 0
Jitter error (maybe fixed) : 0
Retry sector count : 0
Damaged sector count : 0
Track 09
Filename : /Where FLAC is Born/Maxence Cyrin - Modern Rhapsodies (2006) [FLAC]/09 Unfinished Sympathy (Originally performed by Massive Attack).flac
Pre-gap length : 00:02:03
Track gain : -3.32 dB
Peak : 0.772705
CRC32 hash (test run) : 6FA02451
CRC32 hash : 6FA02451
CRC32 hash (skip zero) : 92D220FA
AccurateRip signature : 2C9E1F08
->Accurately ripped! (confidence 5)
Statistics
Read error : 0
Jitter error (maybe fixed) : 0
Retry sector count : 0
Damaged sector count : 0
Track 10
Filename : /Where FLAC is Born/Maxence Cyrin - Modern Rhapsodies (2006) [FLAC]/10 The Meltdown (Originally performed by Lunatic Asylum).flac
Pre-gap length : 00:03:31
Track gain : -2.48 dB
Peak : 0.760864
CRC32 hash (test run) : 86A3F18D
CRC32 hash : 86A3F18D
CRC32 hash (skip zero) : B9D868CF
AccurateRip signature : 82D01B33
->Accurately ripped! (confidence 5)
Statistics
Read error : 0
Jitter error (maybe fixed) : 0
Retry sector count : 0
Damaged sector count : 0
Track 11
Filename : /Where FLAC is Born/Maxence Cyrin - Modern Rhapsodies (2006) [FLAC]/11 Anasthasia (Originally performed by T99).flac
Pre-gap length : 00:04:40
Track gain : -1.74 dB
Peak : 0.772614
CRC32 hash (test run) : 74ACF9F8
CRC32 hash : 74ACF9F8
CRC32 hash (skip zero) : E5B48DA1
AccurateRip signature : FF5C7CF7
->Accurately ripped! (confidence 5)
Statistics
Read error : 0
Jitter error (maybe fixed) : 0
Retry sector count : 0
Damaged sector count : 0
Track 12
Filename : /Where FLAC is Born/Maxence Cyrin - Modern Rhapsodies (2006) [FLAC]/12 Saw2 untitled track 8 (Originally performed by Aphex Twin).flac
Pre-gap length : 00:08:54
Track gain : 3.97 dB
Peak : 0.548615
CRC32 hash (test run) : A448ED2F
CRC32 hash : A448ED2F
CRC32 hash (skip zero) : EB977B07
AccurateRip signature : CBA0B04A
->Accurately ripped! (confidence 5)
Statistics
Read error : 0
Jitter error (maybe fixed) : 0
Retry sector count : 0
Damaged sector count : 0
Track 13
Filename : /Where FLAC is Born/Maxence Cyrin - Modern Rhapsodies (2006) [FLAC]/13 L.F.O. (Originally performed by LFO).flac
Pre-gap length : 00:01:20
Track gain : -1.46 dB
Peak : 0.783661
CRC32 hash (test run) : A96B675A
CRC32 hash : A96B675A
CRC32 hash (skip zero) : 5ED3D1D2
AccurateRip signature : F4ABC47F
->Accurately ripped! (confidence 5)
Statistics
Read error : 0
Jitter error (maybe fixed) : 0
Retry sector count : 0
Damaged sector count : 0
Track 14
Filename : /Where FLAC is Born/Maxence Cyrin - Modern Rhapsodies (2006) [FLAC]/14 Smokebelch II (Originally performed by Sabres of Paradise).flac
Pre-gap length : 00:03:20
Track gain : -0.30 dB
Peak : 0.751556
CRC32 hash (test run) : C120DF4E
CRC32 hash : C120DF4E
CRC32 hash (skip zero) : 65E94BFB
AccurateRip signature : 89ED259A
->Accurately ripped! (confidence 5)
Statistics
Read error : 0
Jitter error (maybe fixed) : 0
Retry sector count : 0
Damaged sector count : 0
No errors occurred
End of status report

Cue

TITLE "Modern Rhapsodies"
PERFORMER "Maxence Cyrin"
REM GENRE "Classical"
REM DATE "2005"
REM DISCNUMBER 1
REM TOTALDISCS 1
REM DISCID AB08B10E
REM REPLAYGAIN_ALBUM_GAIN -1.55 dB
REM REPLAYGAIN_ALBUM_PEAK 0.784637
FILE "01 Behind The Wheel (Originally performed by Depeche Mode).flac" WAVE
TRACK 01 AUDIO
TITLE "Behind The Wheel (Originally performed by Depeche Mode)"
PERFORMER "Maxence Cyrin"
ISRC FRV220502070
REM REPLAYGAIN_TRACK_GAIN -2.62 dB
REM REPLAYGAIN_TRACK_PEAK 0.771393
INDEX 01 00:00:00
TRACK 02 AUDIO
TITLE "Don't You Want Me (Originally performed by Felix)"
PERFORMER "Maxence Cyrin"
ISRC FRV220502080
REM REPLAYGAIN_TRACK_GAIN -1.63 dB
REM REPLAYGAIN_TRACK_PEAK 0.754456
INDEX 00 02:40:35
FILE "02 Don't You Want Me (Originally performed by Felix).flac" WAVE
INDEX 01 00:00:00
FILE "03 Disco's Revenge (Originally performed by Gusto).flac" WAVE
TRACK 03 AUDIO
TITLE "Disco's Revenge (Originally performed by Gusto)"
PERFORMER "Maxence Cyrin"
ISRC FRV220502090
REM REPLAYGAIN_TRACK_GAIN -2.14 dB
REM REPLAYGAIN_TRACK_PEAK 0.772339
INDEX 01 00:00:00
FILE "04 Sueño Latino (Originally performed by Sueno Latino).flac" WAVE
TRACK 04 AUDIO
TITLE "Sueño Latino (Originally performed by Sueno Latino)"
PERFORMER "Maxence Cyrin"
ISRC FRV220502100
REM REPLAYGAIN_TRACK_GAIN -1.25 dB
REM REPLAYGAIN_TRACK_PEAK 0.771027
INDEX 01 00:00:00
TRACK 05 AUDIO
TITLE "Windowlicker (Originally performed by Aphex Twin)"
PERFORMER "Maxence Cyrin"
ISRC FRV220502110
REM REPLAYGAIN_TRACK_GAIN -0.93 dB
REM REPLAYGAIN_TRACK_PEAK 0.746399
INDEX 00 03:01:34
FILE "05 Windowlicker (Originally performed by Aphex Twin).flac" WAVE
INDEX 01 00:00:00
TRACK 06 AUDIO
TITLE "Acid Eiffel (Originally performed by Choice)"
PERFORMER "Maxence Cyrin"
ISRC FRV220502120
REM REPLAYGAIN_TRACK_GAIN -0.53 dB
REM REPLAYGAIN_TRACK_PEAK 0.761383
INDEX 00 03:31:18
FILE "06 Acid Eiffel (Originally performed by Choice).flac" WAVE
INDEX 01 00:00:00
FILE "07 Jaguar (Originally performed by Rolando).flac" WAVE
TRACK 07 AUDIO
TITLE "Jaguar (Originally performed by Rolando)"
PERFORMER "Maxence Cyrin"
ISRC FRV220502130
REM REPLAYGAIN_TRACK_GAIN -0.46 dB
REM REPLAYGAIN_TRACK_PEAK 0.784637
INDEX 01 00:00:00
TRACK 08 AUDIO
TITLE "Go (Originally performed by Moby)"
PERFORMER "Maxence Cyrin"
ISRC FRV220502140
REM REPLAYGAIN_TRACK_GAIN 4.84 dB
REM REPLAYGAIN_TRACK_PEAK 0.705139
INDEX 00 02:43:48
FILE "08 Go (Originally performed by Moby).flac" WAVE
INDEX 01 00:00:00
TRACK 09 AUDIO
TITLE "Unfinished Sympathy (Originally performed by Massive Attack)"
PERFORMER "Maxence Cyrin"
ISRC FRV220502150
REM REPLAYGAIN_TRACK_GAIN -3.32 dB
REM REPLAYGAIN_TRACK_PEAK 0.772705
INDEX 00 02:06:42
FILE "09 Unfinished Sympathy (Originally performed by Massive Attack).flac" WAVE
INDEX 01 00:00:00
TRACK 10 AUDIO
TITLE "The Meltdown (Originally performed by Lunatic Asylum)"
PERFORMER "Maxence Cyrin"
ISRC FRV220502160
REM REPLAYGAIN_TRACK_GAIN -2.48 dB
REM REPLAYGAIN_TRACK_PEAK 0.760864
INDEX 00 02:10:31
FILE "10 The Meltdown (Originally performed by Lunatic Asylum).flac" WAVE
INDEX 01 00:00:00
TRACK 11 AUDIO
TITLE "Anasthasia (Originally performed by T99)"
PERFORMER "Maxence Cyrin"
ISRC FRV220502170
REM REPLAYGAIN_TRACK_GAIN -1.74 dB
REM REPLAYGAIN_TRACK_PEAK 0.772614
INDEX 00 02:34:44
FILE "11 Anasthasia (Originally performed by T99).flac" WAVE
INDEX 01 00:00:00
TRACK 12 AUDIO
TITLE "Saw2 untitled track 8 (Originally performed by Aphex Twin)"
PERFORMER "Maxence Cyrin"
ISRC FRV220502180
REM REPLAYGAIN_TRACK_GAIN 3.97 dB
REM REPLAYGAIN_TRACK_PEAK 0.548615
INDEX 00 02:17:24
FILE "12 Saw2 untitled track 8 (Originally performed by Aphex Twin).flac" WAVE
INDEX 01 00:00:00
TRACK 13 AUDIO
TITLE "L.F.O. (Originally performed by LFO)"
PERFORMER "Maxence Cyrin"
ISRC FRV220502190
REM REPLAYGAIN_TRACK_GAIN -1.46 dB
REM REPLAYGAIN_TRACK_PEAK 0.783661
INDEX 00 02:09:45
FILE "13 L.F.O. (Originally performed by LFO).flac" WAVE
INDEX 01 00:00:00
TRACK 14 AUDIO
TITLE "Smokebelch II (Originally performed by Sabres of Paradise)"
PERFORMER "Maxence Cyrin"
ISRC FRV220502200
REM REPLAYGAIN_TRACK_GAIN -0.30 dB
REM REPLAYGAIN_TRACK_PEAK 0.751556
INDEX 00 02:10:21
FILE "14 Smokebelch II (Originally performed by Sabres of Paradise).flac" WAVE
INDEX 01 00:00:00



Показать сообщения:    

Текущее время: 04-Дек 09:09

Часовой пояс: UTC + 3


Вы не можете начинать темы
Вы не можете отвечать на сообщения
Вы не можете редактировать свои сообщения
Вы не можете удалять свои сообщения
Вы не можете голосовать в опросах
Вы не можете прикреплять файлы к сообщениям
Вы не можете скачивать файлы