(Neo-Classical, Modern) Maxence Cyrin – Novö Piano (Novo Piano) - 2010, FLAC (tracks+.cue), lossless


 

[Цитировать]

Maxence Cyrin – Novö Piano (Novo Piano)
Жанр: Neo-Classical, Modern
Год выпуска диска: 2010
Аудио кодек: FLAC
Тип рипа: tracks+.cue
Битрейт аудио: lossless
Продолжительность: 34:22
Треклист:
01. Where Is My Mind (The Pixies) (2:47)
02. D.A.N.C.E (Justice) (2:50)
03. Ivo (Cocteau Twins) (3:58)
05. Around The World (Daft Punk) (3:30)
04. Only Shallow (My Bloody Valentine) (3:40)
06. No Cars Go (Arcade Fire) (4:02)
07. Lithium (Nirvana) (3:54)
08. Kids (MGMT) (3:00)
09. Triangle (Jacno) (2:50)
10. Crazy In Love (Beyoncé & Jay-Z) (3:51)

Лог

X Lossless Decoder version 20110508 (133.0)
XLD extraction logfile from 2011-05-10 15:31:57 -0600
Maxence Cyrin / Novö Piano
Used drive : TSSTcorp CDDVDW SN-S083N (revision SB02)
Ripper mode : CDParanoia III 10.2
Disable audio cache : OK for the drive with a cache less than 2750KiB
Make use of C2 pointers : NO
Read offset correction : 6
Max retry count : 100
Gap status : Analyzed, Appended
TOC of the extracted CD
Track | Start | Length | Start sector | End sector
---------------------------------------------------------
1 | 00:00:00 | 02:45:12 | 0 | 12386
2 | 02:45:12 | 02:49:03 | 12387 | 25064
3 | 05:34:15 | 03:58:41 | 25065 | 42955
4 | 09:32:56 | 03:37:72 | 42956 | 59302
5 | 13:10:53 | 03:30:40 | 59303 | 75092
6 | 16:41:18 | 04:02:21 | 75093 | 93263
7 | 20:43:39 | 03:53:73 | 93264 | 110811
8 | 24:37:37 | 03:00:50 | 110812 | 124361
9 | 27:38:12 | 02:52:04 | 124362 | 137265
10 | 30:30:16 | 03:52:12 | 137266 | 154677
AccurateRip Summary
Track 01 : OK (confidence 1)
Track 02 : OK (confidence 1)
Track 03 : OK (confidence 1)
Track 04 : OK (confidence 1)
Track 05 : OK (confidence 1)
Track 06 : OK (confidence 1)
Track 07 : OK (confidence 1)
Track 08 : OK (confidence 1)
Track 09 : OK (confidence 1)
Track 10 : OK (confidence 1)
->All tracks accurately ripped.
All Tracks
Album gain : -4.29 dB
Peak : 0.991516
Statistics
Read error : 0
Skipped (treated as error) : 0
Edge jitter error (maybe fixed) : 1
Atom jitter error (maybe fixed) : 0
Drift error (maybe fixed) : 0
Dropped bytes error (maybe fixed) : 0
Duplicated bytes error (maybe fixed) : 1
Track 01
Filename : /Where FLAC is Born/Maxence Cyrin - Novö Piano (2010) - [FLAC]/01 Where Is My Mind (Originally Performed By The Pixies).flac
Pre-gap length : 00:02:00
Track gain : -0.96 dB
Peak : 0.869385
CRC32 hash (test run) : BB0BCB7D
CRC32 hash : BB0BCB7D
CRC32 hash (skip zero) : 5D3468A0
AccurateRip signature : B49EFA82
->Accurately ripped! (confidence 1)
Statistics
Read error : 0
Skipped (treated as error) : 0
Edge jitter error (maybe fixed) : 0
Atom jitter error (maybe fixed) : 0
Drift error (maybe fixed) : 0
Dropped bytes error (maybe fixed) : 0
Duplicated bytes error (maybe fixed) : 0
Inconsistency in error sectors : 0
Track 02
Filename : /Where FLAC is Born/Maxence Cyrin - Novö Piano (2010) - [FLAC]/02 D.A.N.C.E (Originally Performed By Justice).flac
Track gain : -4.57 dB
Peak : 0.972656
CRC32 hash (test run) : E86B52AE
CRC32 hash : E86B52AE
CRC32 hash (skip zero) : ACA7BC3B
AccurateRip signature : 0C61B912
->Accurately ripped! (confidence 1)
Statistics
Read error : 0
Skipped (treated as error) : 0
Edge jitter error (maybe fixed) : 0
Atom jitter error (maybe fixed) : 0
Drift error (maybe fixed) : 0
Dropped bytes error (maybe fixed) : 0
Duplicated bytes error (maybe fixed) : 0
Inconsistency in error sectors : 0
Track 03
Filename : /Where FLAC is Born/Maxence Cyrin - Novö Piano (2010) - [FLAC]/03 Ivo (Originally Performed By Cocteau Twins).flac
Track gain : -1.15 dB
Peak : 0.877716
CRC32 hash (test run) : 1B5655B5
CRC32 hash : 1B5655B5
CRC32 hash (skip zero) : F574A39D
AccurateRip signature : 07B8E262
->Accurately ripped! (confidence 1)
Statistics
Read error : 0
Skipped (treated as error) : 0
Edge jitter error (maybe fixed) : 0
Atom jitter error (maybe fixed) : 0
Drift error (maybe fixed) : 0
Dropped bytes error (maybe fixed) : 0
Duplicated bytes error (maybe fixed) : 0
Inconsistency in error sectors : 0
Track 04
Filename : /Where FLAC is Born/Maxence Cyrin - Novö Piano (2010) - [FLAC]/04 Only Shallow (Originally Performed By My Bloody Valentine).flac
Track gain : -1.34 dB
Peak : 0.991516
CRC32 hash (test run) : 5A0F8A95
CRC32 hash : 5A0F8A95
CRC32 hash (skip zero) : 05523B28
AccurateRip signature : B85F2D23
->Accurately ripped! (confidence 1)
Statistics
Read error : 0
Skipped (treated as error) : 0
Edge jitter error (maybe fixed) : 0
Atom jitter error (maybe fixed) : 0
Drift error (maybe fixed) : 0
Dropped bytes error (maybe fixed) : 0
Duplicated bytes error (maybe fixed) : 0
Inconsistency in error sectors : 0
Track 05
Filename : /Where FLAC is Born/Maxence Cyrin - Novö Piano (2010) - [FLAC]/05 Around The World (Originally Performed By Daft Punk).flac
Track gain : -2.96 dB
Peak : 0.976654
CRC32 hash (test run) : 84CEE444
CRC32 hash : 84CEE444
CRC32 hash (skip zero) : 6727EA7F
AccurateRip signature : DC04725D
->Accurately ripped! (confidence 1)
Statistics
Read error : 0
Skipped (treated as error) : 0
Edge jitter error (maybe fixed) : 0
Atom jitter error (maybe fixed) : 0
Drift error (maybe fixed) : 0
Dropped bytes error (maybe fixed) : 0
Duplicated bytes error (maybe fixed) : 0
Inconsistency in error sectors : 0
Track 06
Filename : /Where FLAC is Born/Maxence Cyrin - Novö Piano (2010) - [FLAC]/06 No Cars Go (Originally Performed By Arcade Fire).flac
Track gain : -4.28 dB
Peak : 0.884552
CRC32 hash (test run) : 417B66C8
CRC32 hash : 417B66C8
CRC32 hash (skip zero) : AEF583C2
AccurateRip signature : 978A996E
->Accurately ripped! (confidence 1)
Statistics
Read error : 0
Skipped (treated as error) : 0
Edge jitter error (maybe fixed) : 0
Atom jitter error (maybe fixed) : 0
Drift error (maybe fixed) : 0
Dropped bytes error (maybe fixed) : 0
Duplicated bytes error (maybe fixed) : 0
Inconsistency in error sectors : 0
Track 07
Filename : /Where FLAC is Born/Maxence Cyrin - Novö Piano (2010) - [FLAC]/07 Lithium (Originally Performed By Nirvana).flac
Track gain : -6.16 dB
Peak : 0.970154
CRC32 hash (test run) : 4651F80C
CRC32 hash : 4651F80C
CRC32 hash (skip zero) : E3A15E2A
AccurateRip signature : 3A07DD8C
->Accurately ripped! (confidence 1)
Statistics
Read error : 0
Skipped (treated as error) : 0
Edge jitter error (maybe fixed) : 0
Atom jitter error (maybe fixed) : 0
Drift error (maybe fixed) : 0
Dropped bytes error (maybe fixed) : 0
Duplicated bytes error (maybe fixed) : 0
Inconsistency in error sectors : 0
Track 08
Filename : /Where FLAC is Born/Maxence Cyrin - Novö Piano (2010) - [FLAC]/08 Kids (Originally Performed By MGMT).flac
Track gain : -0.66 dB
Peak : 0.670258
CRC32 hash (test run) : B8216E45
CRC32 hash : B8216E45
CRC32 hash (skip zero) : BB05AD57
AccurateRip signature : FB3E84CA
->Accurately ripped! (confidence 1)
Statistics
Read error : 0
Skipped (treated as error) : 0
Edge jitter error (maybe fixed) : 0
Atom jitter error (maybe fixed) : 0
Drift error (maybe fixed) : 0
Dropped bytes error (maybe fixed) : 0
Duplicated bytes error (maybe fixed) : 0
Inconsistency in error sectors : 0
Track 09
Filename : /Where FLAC is Born/Maxence Cyrin - Novö Piano (2010) - [FLAC]/09 Triangle (Originally Performed By Jacno).flac
Track gain : -4.72 dB
Peak : 0.964844
CRC32 hash (test run) : 8649F30C
CRC32 hash : 8649F30C
CRC32 hash (skip zero) : D2E74909
AccurateRip signature : 87D47BA6
->Accurately ripped! (confidence 1)
Statistics
Read error : 0
Skipped (treated as error) : 0
Edge jitter error (maybe fixed) : 0
Atom jitter error (maybe fixed) : 0
Drift error (maybe fixed) : 0
Dropped bytes error (maybe fixed) : 0
Duplicated bytes error (maybe fixed) : 0
Inconsistency in error sectors : 0
Track 10
Filename : /Where FLAC is Born/Maxence Cyrin - Novö Piano (2010) - [FLAC]/10 Crazy In Love (Originally Performed By Beyoncé & Jay Z).flac
Track gain : -5.40 dB
Peak : 0.979797
CRC32 hash (test run) : DB254923
CRC32 hash : DB254923
CRC32 hash (skip zero) : 4805FA42
AccurateRip signature : ADE80423
->Accurately ripped! (confidence 1)
Statistics
Read error : 0
Skipped (treated as error) : 0
Edge jitter error (maybe fixed) : 1
Atom jitter error (maybe fixed) : 0
Drift error (maybe fixed) : 0
Dropped bytes error (maybe fixed) : 0
Duplicated bytes error (maybe fixed) : 1
Inconsistency in error sectors : 0
No errors occurred
End of status report

Cue

TITLE "Novö Piano"
PERFORMER "Maxence Cyrin"
REM DATE "2010"
REM DISCNUMBER 1
REM TOTALDISCS 1
REM DISCID 7E080E0A
FILE "01 Where Is My Mind (Originally Performed By The Pixies).wav" WAVE
TRACK 01 AUDIO
TITLE "Where Is My Mind (Originally Performed By The Pixies)"
PERFORMER "Maxence Cyrin"
ISRC FR13Z0900040
FLAGS DCP
INDEX 01 00:00:00
FILE "02 D.A.N.C.E (Originally Performed By Justice).wav" WAVE
TRACK 02 AUDIO
TITLE "D.A.N.C.E (Originally Performed By Justice)"
PERFORMER "Maxence Cyrin"
ISRC FR13Z0900041
FLAGS DCP
INDEX 01 00:00:00
FILE "03 Ivo (Originally Performed By Cocteau Twins).wav" WAVE
TRACK 03 AUDIO
TITLE "Ivo (Originally Performed By Cocteau Twins)"
PERFORMER "Maxence Cyrin"
ISRC FR13Z0900042
FLAGS DCP
INDEX 01 00:00:00
FILE "04 Only Shallow (Originally Performed By My Bloody Valentine).wav" WAVE
TRACK 04 AUDIO
TITLE "Only Shallow (Originally Performed By My Bloody Valentine)"
PERFORMER "Maxence Cyrin"
ISRC FR13Z0900043
FLAGS DCP
INDEX 01 00:00:00
FILE "05 Around The World (Originally Performed By Daft Punk).wav" WAVE
TRACK 05 AUDIO
TITLE "Around The World (Originally Performed By Daft Punk)"
PERFORMER "Maxence Cyrin"
ISRC FR13Z0900044
FLAGS DCP
INDEX 01 00:00:00
FILE "06 No Cars Go (Originally Performed By Arcade Fire).wav" WAVE
TRACK 06 AUDIO
TITLE "No Cars Go (Originally Performed By Arcade Fire)"
PERFORMER "Maxence Cyrin"
ISRC FR13Z0900045
FLAGS DCP
INDEX 01 00:00:00
FILE "07 Lithium (Originally Performed By Nirvana).wav" WAVE
TRACK 07 AUDIO
TITLE "Lithium (Originally Performed By Nirvana)"
PERFORMER "Maxence Cyrin"
ISRC FR13Z0900046
FLAGS DCP
INDEX 01 00:00:00
FILE "08 Kids (Originally Performed By MGMT).wav" WAVE
TRACK 08 AUDIO
TITLE "Kids (Originally Performed By MGMT)"
PERFORMER "Maxence Cyrin"
ISRC FR13Z0900047
FLAGS DCP
INDEX 01 00:00:00
FILE "09 Triangle (Originally Performed By Jacno).wav" WAVE
TRACK 09 AUDIO
TITLE "Triangle (Originally Performed By Jacno)"
PERFORMER "Maxence Cyrin"
ISRC FR13Z0900048
FLAGS DCP
INDEX 01 00:00:00
FILE "10 Crazy In Love (Originally Performed By Beyoncé & Jay Z).wav" WAVE
TRACK 10 AUDIO
TITLE "Crazy In Love (Originally Performed By Beyoncé & Jay Z)"
PERFORMER "Maxence Cyrin"
ISRC FR13Z0900049
FLAGS DCP
INDEX 01 00:00:00



Показать сообщения:    

Текущее время: 10-Дек 21:36

Часовой пояс: UTC + 3


Вы не можете начинать темы
Вы не можете отвечать на сообщения
Вы не можете редактировать свои сообщения
Вы не можете удалять свои сообщения
Вы не можете голосовать в опросах
Вы не можете прикреплять файлы к сообщениям
Вы не можете скачивать файлы