Театр теней Антона Корбайна (Первый фильм Антона Корбайна) / Shadow Play: The Making of Anton Corbijn (Джош Уайтман / Josh Whiteman) [2009, документальный, биографический, автобиографический, IPTVRip]


Статистика раздачи [Обновить пиров]
Размер:  708 MB   |    Зарегистрирован:  8 месяцев 26 дней   |    Скачан:  0 раз

Полного источника не было: Никогда

 
   
 
 
 

[Цитировать]

Театр теней Антона Корбайна / Shadow Play: The Making of Anton Corbijn
«Самое сложное – это портрет. Фотоаппарат должен находиться в пространстве между кожей человека и его одеждой».
(Анри Картье-Брессон)

Релиз:
Автор рипа: marfa12
Год выпуска: 2009
Страна: Австралия
Жанр: документальный, биографический, автобиографический
Продолжительность: 00:55:01
Перевод: профессиональный (одноголосый)
Русские субтитры: нет
Режиссер: Джош Уайтман / Josh Whiteman
Описание: Он называет себя фотографом, но на самом деле он – вор. Американские индейцы, буддийские монахи не любят фотографию, говорят, что фотосъёмка крадёт душу. Только посмотрите на постаревших моделей, актёров, рок-звёзд и убедитесь, что это правда.
Антон Корбайн – самый легендарный рок-фотограф, один из самых известных клипмейкеров.
По его собственному признанию он стал популярным благодаря увлечению музыкой. Карьера Антона Корбайна началась с фотосъемок лондонской пост-панк тусовки, прежде всего группы «Joy Division» и ее фронтмена Иена Кертиса (Ian Kevin Curtis). В числе первых групп, которых он снимал на рок-концертах, были и «Queen».
В течение жизни ему удалось работать с такими рок-звездами как Rolling Stones, Nirvana, Metallica, U2, Depeche Mode и многими другими. Коллектив Depeche Mode даже объявил Корбайна 5-м участником группы. Кроме всего прочего Антон Корбайн является режиссером и клипмейкером.
Предлагаемый Вашему вниманию документальный фильм повествует о самом фотографе, о его работе над различными проектами и в частности о его режиссерском дебюте в большом кинематографе – фильме «Контроль» («Control»), посвящёном нескольким последним годам Яна Кёртиса – лидера рок-группы «Joy Division».
В фильме принимают участие: Антон Уилсон (Anthon Wilson, звукозаписывающая компания “Factory Records”), Антон Корбайн (Anton Corbijn), Барт Чебот (Bart Chabot, поэт и друг Антона Корбайна), Бернард Самнер (Bernard Sumner, группы “Joy Division”, “New Order”), Боно (Bono, группа “U2”), Брэндон Флауэрс (Brandon Flowers, группа “The Killers”), Вильям Гибсон (William Gibson, писатель), Гэвин Фрайдей (Gavin Friday, певец), Джим Маршалл (Jim Marshall, фотограф), Джон Купер Кларк (John Cooper Clarke, панк-поэт), Дэвид Гэхан (David Gahan, группа “Depech Mode”), Курт Кобейн (Kurt Cobain, группа “Nirvana”), Крис Мартин (Chris Martin, группа “Coldplay”), Майкл Стайп (Michael Stipe, группа “R.E.M.”), Мартин Гор (Martin Gore, группа “Depech Mode”), Нил Спенсер (Neil Spencer, редактор журнала “New Musical Express” в 1978-85 гг.), Ориан Вилльямс (Orian Williams, продюсер фильма «Контроль»), Пол Морли (Paul Morley, писатель, журнал “New Musical Express”), Саманта Мортон (Samantha Morton, актриса), Стелан Холм (Stellan Holm, галерист), Сэм Райли (Sam Riley, актёр), Фрэнсис «Фрэн» Хили (Francis “Fran” Healy, группа “Travis”), Хелена Кристенсен (Helena Christensen, модель, актриса) и другие

Цитата из фильма

«Если начинаешь снимать фильмы, чтобы соответствовать ожиданиям других, встаёшь на опасный путь. Нужно соответствовать собственным ожиданиям. Так и с фотографией, с живописью, дизайном. Если чем-то доволен, поделись своей работой со всеми. Так её оценят».
Антон Корбайн

О фильме «Контроль» («Control»)

«Контроль» в период 2007-2009 гг. – участник девятнадцати кинофестивалей, на которых двадцать пять раз номинировался на вручение высших наград, тринадцать из которых сумел завоевать. Подробнее здесь.
«Контроль» на IMDB
«Контроль» на КиноПоиске

Обложка


Доп. информация:
IMDB
КиноПоиск

Качество: IPTVRip
Формат: AVI
Видео кодек: XviD
Аудио кодек: MP3
Видео: XviD, 704x400, 16:9, 1695 Кбит/сек, 25.000 кадр/сек
Аудио: mp3, 96 Кбит/сек, 48,0 КГц, 2 канала

Трейлер: смотреть

mediainfo

Общее
Полное имя : D:\Мои раздачи\документальные\Shadow.Play.The.Making.of.Anton.Corbijn.2009.IPTVRip.by.marfa12.avi
Формат : AVI
Формат/Информация : Audio Video Interleave
Размер файла : 708 Мбайт
Продолжительность : 55 м.
Общий поток : 1801 Кбит/сек
Программа кодирования : VirtualDubMod 1.5.10.2 (build 2540/release)
Библиотека кодирования : VirtualDubMod build 2540/release
Видео
Идентификатор : 0
Формат : MPEG-4 Visual
Профиль формата : Simple@L3
Параметр BVOP формата : 2
Параметр QPel формата : Нет
Параметр GMC формата : Без точки перехода
Параметр матрицы формата : Default (MPEG)
Режим смешивания : Сжатый битовый поток
Идентификатор кодека : XVID
Идентификатор кодека/Подсказка : XviD
Продолжительность : 55 м.
Битрейт : 1695 Кбит/сек
Ширина : 704 пикселя
Высота : 400 пикселей
Соотношение сторон : 16:9
Частота кадров : 25,000 кадров/сек
Цветовое пространство : YUV
Субдискретизация насыщенности : 4:2:0
Битовая глубина : 8 бит
Тип развёртки : Прогрессивная
Метод сжатия : С потерями
Бит/(Пиксели*Кадры) : 0.241
Размер потока : 667 Мбайт (94%)
Библиотека кодирования : XviD 1.1.0 Beta2 (UTC 2005-04-04)
Аудио
Идентификатор : 1
Формат : MPEG Audio
Версия формата : Version 1
Профиль формата : Layer 3
Режим : Joint stereo
Расширение режима : MS Stereo
Идентификатор кодека : 55
Идентификатор кодека/Подсказка : MP3
Продолжительность : 55 м.
Вид битрейта : Постоянный
Битрейт : 96,0 Кбит/сек
Каналы : 2 канала
Частота : 48,0 КГц
Метод сжатия : С потерями
Размер потока : 37,8 Мбайт (5%)
Выравнивание : Соединение по промежуткам
Продолжительность промежутка : 40 мс. (1,00 видеокадр)
Время предзагрузки промежутка : 504 мс.
Библиотека кодирования : LAME3.98
Настройки программы : -m j -V 4 -q 2 -lowpass 15.1 -b 96
[teatrix.ru].t16199.torrent 
Торрент: Зарегистрирован [ 2016-03-15 12:04 ] · E5CEDB705DC188CDC04339CD8636BAD329DF986C

Скачать .torrent

Скачать

28 KB

Статус: проверено
Скачан: 0 раз
Размер: 708 MB
terms.php



Показать сообщения:    

Текущее время: 10-Дек 17:44

Часовой пояс: UTC + 3


Вы не можете начинать темы
Вы не можете отвечать на сообщения
Вы не можете редактировать свои сообщения
Вы не можете удалять свои сообщения
Вы не можете голосовать в опросах
Вы не можете прикреплять файлы к сообщениям
Вы можете скачивать файлы