Трекки / Фанаты Star Trek / Trekkies (Роджер Найгард) [1997, США, документальный, DVDRip] MVO Mystery Film + Original Eng + Sub Rus


Статистика раздачи [Обновить пиров]
Размер:  1.21 GB   |    Зарегистрирован:  8 месяцев 26 дней   |    Скачан:  0 раз

Полного источника не было: Никогда

 
   
 
 
 

[Цитировать]

Трекки / Фанаты Star Trek / Trekkies -Страна: США
Жанр: документальный
Год выпуска: 1997
Продолжительность: 01:26:36-Перевод: Любительский (многоголосый закадровый)
Русские субтитры: есть
Оригинальная аудиодорожка: английская-Режиссер: Роджер Найгард-В ролях: Дениз Кросби, Барбара Адамс, Дэнис Бургиньон, Дэвид Гринштейн, Лорел Гринштейн, Габриэль Кернер, Ричард Корнер, Рич Кронфельд, Джойс Мэйсон, Эвелин Де Биасе, Энн Кэтлин Мерфи, Маджел Бэррет, Джеймс Духан, ДеФорест Келли, Уолтер Кениг, Нишелль Николс, Леонард Нимой, Уильям Шетнер, Джордж Такей, Грэйс Ли Уитни, ЛеВар Бёртон, Майкл Дорн, Терри Фаррелл, Джонатан Фрейкс, Чейз Мастерсон, Кейт Малгрю, Роберт О’Рейли, Итэн Филлипс, Брент Спайнер, Уил Уитон, Брэннон Брага и другие.-Описание: Документальный фильм Роджера Найгарда о преданных поклонниках "Звездного Пути" Джина Родденберри.
В главной роли - Дэниз Кросби (известная по роли шефа безопасности Таши Яр из первого сезона Звездный Путь: Следующее поколение).
Фильм включает в себя интервью с преданными поклонниками Трека, больше известными как трекки.
Фанаты - это люди начиная от тех, кто одевается как клингоны до членов фан-клуба Брента Спайнера и клуба, который снимает свой собственный Трек.
В фильме вы увидите интервью с актерами, фанатами, а также Барбару Адамс (Whitewater), которая явилась на суд присяжных заседателей в своей форме Звездного флота.
-Перевод: Capt. Paparazzi, POWER_RANGER, Евгения Silent, Ульяна Саркисова
Озвучивали: JeFer$on, Persona99, Eve Ripper, Jurich (Павел Абрамкин), Марина Netlife, Lita, Hansen
Монтаж и сведение звука: Jurich (Павел Абрамкин)-СЭМПЛ-Трекки 2/Trekkies 2-Качество видео: DVDRip
Формат видео: AVI
Видео: 512x400 (1.28:1), 23.976 fps, XviD 1.1 beta 2 (build 39) ~1609 kbps avg, 0.33 bit/pixel
Аудио: 48 kHz, MPEG Layer 3, 2 ch, ~192.00 kbps avg [MVO]
Аудио 2: 48 kHz, AC3 Dolby Digital, 2/0 (L,R) Surround Encoded ch, ~192 kbps [ENG]
Формат субтитров: softsub (SRT)-

MediaInfo

Format : AVI
Format/Info : Audio Video Interleave
File size : 1.21 GiB
Duration : 1h 26mn
Overall bit rate : 2 008 Kbps
Writing application : VirtualDubMod 1.5.10.1 (build 2366/release)
Writing library : VirtualDubMod build 2366/release
Video
ID : 0
Format : MPEG-4 Visual
Format profile : Advanced Simple@L5
Format settings, BVOP : 1
Format settings, QPel : No
Format settings, GMC : No warppoints
Format settings, Matrix : Custom
Codec ID : XVID
Codec ID/Hint : XviD
Duration : 1h 26mn
Bit rate : 1 610 Kbps
Width : 512 pixels
Height : 400 pixels
Display aspect ratio : 1.280
Frame rate : 23.976 fps
Color space : YUV
Chroma subsampling : 4:2:0
Bit depth : 8 bits
Scan type : Progressive
Compression mode : Lossy
Bits/(Pixel*Frame) : 0.328
Stream size : 997 MiB (80%)
Writing library : XviD 1.1.0 Beta2 (UTC 2005-04-04)
Audio #1
ID : 1
Format : MPEG Audio
Format version : Version 1
Format profile : Layer 3
Mode : Joint stereo
Codec ID : 55
Codec ID/Hint : MP3
Duration : 1h 26mn
Bit rate mode : Constant
Bit rate : 192 Kbps
Channel(s) : 2 channels
Sampling rate : 48.0 KHz
Compression mode : Lossy
Stream size : 119 MiB (10%)
Alignment : Aligned on interleaves
Interleave, duration : 42 ms (1.00 video frame)
Interleave, preload duration : 504 ms
Language : English
Audio #2
ID : 2
Format : AC-3
Format/Info : Audio Coding 3
Format profile : Dolby Digital
Mode extension : CM (complete main)
Codec ID : 2000
Duration : 1h 26mn
Bit rate mode : Constant
Bit rate : 192 Kbps
Channel(s) : 2 channels
Channel positions : Front: L R
Sampling rate : 48.0 KHz
Bit depth : 16 bits
Compression mode : Lossy
Delay relative to video : 19ms
Stream size : 119 MiB (10%)
Alignment : Split accross interleaves
Interleave, duration : 42 ms (1.00 video frame)
Interleave, preload duration : 500 ms

Скриншот c названием фильма

[teatrix.ru].t16213.torrent 
Торрент: Зарегистрирован [ 2016-03-15 12:03 ] · 8DD11F6D2D8612CFDB013C3088874169A7B96290

Скачать .torrent

Скачать

13 KB

Статус: проверено
Скачан: 0 раз
Размер: 1.21 GB
terms.php



Показать сообщения:    

Текущее время: 11-Дек 03:19

Часовой пояс: UTC + 3


Вы не можете начинать темы
Вы не можете отвечать на сообщения
Вы не можете редактировать свои сообщения
Вы не можете удалять свои сообщения
Вы не можете голосовать в опросах
Вы не можете прикреплять файлы к сообщениям
Вы можете скачивать файлы