(Pop, Classical) Adoro - 5 Albums - 2008-2012, FLAC (tracks+.cue), lossless


 

[Цитировать]

Adoro / 5 Albums
Жанр: Pop, Classical
Страна-производитель диска: Germany
Год издания: 2008-2012
Издатель (лейбл): We Love Music (Universal)
Страна: Germany
Аудиокодек: FLAC (*.flac)
Тип рипа: tracks+.cue
Битрейт аудио: lossless
Источник (релизер): мой рип
Наличие сканов в содержимом раздачи: частично

2012 Träume

Треклист:
Adoro - "Träume" (2012)
Tracks: 13
Total time: 52:11
Year: 2012
Disc-ID: classical / bf0c3f0d
1. Solang' man Träume noch leben kann 3:36
2. Wir sind am Leben 4:34
3. Wenn Worte meine Sprache wären 4:07
4. Tage wie diese 4:58
5. Dir gehört mein Herz 3:42
6. Weinst Du 4:44
7. Ich lebe für dich 4:11
8. Vom selben Stern 3:48
9. Stadt 4:22
10. Eiserner Steg 4:11
11. Die Liebe ist eine Rose 3:10
12. Für immer jung 3:46
Bonustitel:
13. Dein ist mein ganzes Herz (Duett mit Helene Fischer) 3:02

Лог создания рипа

Exact Audio Copy V1.0 beta 3 from 29. August 2011
EAC extraction logfile from 7. January 2014, 14:50
Adoro / Traeume
Used drive : PLEXTOR CD-R PX-W4012A Adapter: 2 ID: 0
Read mode : Secure
Utilize accurate stream : Yes
Defeat audio cache : Yes
Make use of C2 pointers : No
Read offset correction : 98
Overread into Lead-In and Lead-Out : No
Fill up missing offset samples with silence : Yes
Delete leading and trailing silent blocks : No
Null samples used in CRC calculations : Yes
Used interface : Native Win32 interface for Win NT & 2000
Gap handling : Appended to previous track
Used output format : User Defined Encoder
Selected bitrate : 1024 kBit/s
Quality : High
Add ID3 tag : No
Command line compressor : C:\Program Files (x86)\Exact Audio Copy\Flac\flac.exe
Additional command line options : -V -8 -T "Genre=%genre%" -T "Artist=%artist%" -T "Title=%title%" -T "Album=%albumtitle%" -T "Date=%year%" -T "Tracknumber=%tracknr%" -T "Comment=%comment%" %source%
TOC of the extracted CD
Track | Start | Length | Start sector | End sector
---------------------------------------------------------
1 | 0:00.00 | 3:36.39 | 0 | 16238
2 | 3:36.39 | 4:34.25 | 16239 | 36813
3 | 8:10.64 | 4:07.57 | 36814 | 55395
4 | 12:18.46 | 4:58.22 | 55396 | 77767
5 | 17:16.68 | 3:42.17 | 77768 | 94434
6 | 20:59.10 | 4:44.66 | 94435 | 115800
7 | 25:44.01 | 4:11.20 | 115801 | 134645
8 | 29:55.21 | 3:48.70 | 134646 | 151815
9 | 33:44.16 | 4:22.13 | 151816 | 171478
10 | 38:06.29 | 4:11.07 | 171479 | 190310
11 | 42:17.36 | 3:10.18 | 190311 | 204578
12 | 45:27.54 | 3:46.00 | 204579 | 221528
13 | 49:13.54 | 3:01.72 | 221529 | 235175
Track 1
Filename C:\H\Adoro\Adoro - Traeume\01 Solang' man Traeume noch leben kann.wav
Pre-gap length 0:00:02.00
Peak level 98.6 %
Extraction speed 8.3 X
Track quality 100.0 %
Test CRC 751AB0DB
Copy CRC 751AB0DB
Accurately ripped (confidence 13) [51E97291] (AR v2)
Copy OK
Track 2
Filename C:\H\Adoro\Adoro - Traeume\02 Wir sind am Leben.wav
Peak level 98.6 %
Extraction speed 9.3 X
Track quality 100.0 %
Test CRC 6428401C
Copy CRC 6428401C
Accurately ripped (confidence 13) [000E7DBD] (AR v2)
Copy OK
Track 3
Filename C:\H\Adoro\Adoro - Traeume\03 Wenn Worte meine Sprache waeren.wav
Peak level 98.6 %
Extraction speed 10.2 X
Track quality 100.0 %
Test CRC BE4D452B
Copy CRC BE4D452B
Accurately ripped (confidence 13) [ADE678C2] (AR v2)
Copy OK
Track 4
Filename C:\H\Adoro\Adoro - Traeume\04 Tage wie diese.wav
Peak level 98.8 %
Extraction speed 11.1 X
Track quality 100.0 %
Test CRC 6541D6F2
Copy CRC 6541D6F2
Accurately ripped (confidence 13) [4BC142D4] (AR v2)
Copy OK
Track 5
Filename C:\H\Adoro\Adoro - Traeume\05 Dir gehoert mein Herz.wav
Peak level 98.6 %
Extraction speed 11.7 X
Track quality 100.0 %
Test CRC 6AF2C4BB
Copy CRC 6AF2C4BB
Accurately ripped (confidence 13) [0CDCAF93] (AR v2)
Copy OK
Track 6
Filename C:\H\Adoro\Adoro - Traeume\06 Weinst Du.wav
Peak level 98.7 %
Extraction speed 11.0 X
Track quality 99.9 %
Test CRC DD59DAEA
Copy CRC DD59DAEA
Accurately ripped (confidence 12) [9C0FB539] (AR v2)
Copy OK
Track 7
Filename C:\H\Adoro\Adoro - Traeume\07 Ich lebe fuer dich.wav
Peak level 98.6 %
Extraction speed 13.0 X
Track quality 100.0 %
Test CRC 70A5A25F
Copy CRC 70A5A25F
Accurately ripped (confidence 13) [C4A8ED94] (AR v2)
Copy OK
Track 8
Filename C:\H\Adoro\Adoro - Traeume\08 Vom selben Stern.wav
Peak level 98.8 %
Extraction speed 13.6 X
Track quality 100.0 %
Test CRC AF9329C3
Copy CRC AF9329C3
Accurately ripped (confidence 13) [2E62FC5A] (AR v2)
Copy OK
Track 9
Filename C:\H\Adoro\Adoro - Traeume\09 Stadt.wav
Peak level 98.7 %
Extraction speed 14.2 X
Track quality 100.0 %
Test CRC C1974C58
Copy CRC C1974C58
Accurately ripped (confidence 13) [5491178C] (AR v2)
Copy OK
Track 10
Filename C:\H\Adoro\Adoro - Traeume\10 Eiserner Steg.wav
Peak level 98.6 %
Extraction speed 14.6 X
Track quality 100.0 %
Test CRC A046A6E9
Copy CRC A046A6E9
Accurately ripped (confidence 13) [AC6C7095] (AR v2)
Copy OK
Track 11
Filename C:\H\Adoro\Adoro - Traeume\11 Die Liebe ist eine Rose.wav
Peak level 98.6 %
Extraction speed 11.9 X
Track quality 99.9 %
Test CRC 0421A05E
Copy CRC 0421A05E
Accurately ripped (confidence 13) [F974DC93] (AR v2)
Copy OK
Track 12
Filename C:\H\Adoro\Adoro - Traeume\12 Fuer immer jung.wav
Peak level 98.6 %
Extraction speed 15.4 X
Track quality 100.0 %
Test CRC 2FE834B3
Copy CRC 2FE834B3
Accurately ripped (confidence 13) [BC35680F] (AR v2)
Copy OK
Track 13
Filename C:\H\Adoro\Adoro - Traeume\13 Dein ist mein ganzes Herz (Duett mit Helene Fischer).wav
Peak level 99.9 %
Extraction speed 10.0 X
Track quality 99.9 %
Test CRC 5101A743
Copy CRC 5101A743
Accurately ripped (confidence 10) [5E9271C3] (AR v2)
Copy OK
All tracks accurately ripped
No errors occurred
End of status report
==== Log checksum 332EFE43A27D62400783891001583ED2294B078D5769C3F20807BE9158B891D1 ====

Содержание индексной карты (.CUE)

REM GENRE "Klassic, Pop"
REM DATE 2012
REM DISCID BF0C3F0D
REM COMMENT "ExactAudioCopy v1.0b3"
CATALOG 0602537182473
PERFORMER "Adoro"
TITLE "Traeume"
FILE "01 Solang' man Traeume noch leben kann.wav" WAVE
TRACK 01 AUDIO
TITLE "Solang' man Traeume noch leben kann"
PERFORMER "Adoro"
ISRC DEUM71203713
INDEX 01 00:00:00
FILE "02 Wir sind am Leben.wav" WAVE
TRACK 02 AUDIO
TITLE "Wir sind am Leben"
PERFORMER "Adoro"
ISRC DEUM71203714
INDEX 01 00:00:00
FILE "03 Wenn Worte meine Sprache waeren.wav" WAVE
TRACK 03 AUDIO
TITLE "Wenn Worte meine Sprache waeren"
PERFORMER "Adoro"
ISRC DEUM71203715
INDEX 01 00:00:00
FILE "04 Tage wie diese.wav" WAVE
TRACK 04 AUDIO
TITLE "Tage wie diese"
PERFORMER "Adoro"
ISRC DEUM71203741
INDEX 01 00:00:00
FILE "05 Dir gehoert mein Herz.wav" WAVE
TRACK 05 AUDIO
TITLE "Dir gehoert mein Herz"
PERFORMER "Adoro"
ISRC DEUM71203716
INDEX 01 00:00:00
FILE "06 Weinst Du.wav" WAVE
TRACK 06 AUDIO
TITLE "Weinst Du"
PERFORMER "Adoro"
ISRC DEUM71203717
INDEX 01 00:00:00
FILE "07 Ich lebe fuer dich.wav" WAVE
TRACK 07 AUDIO
TITLE "Ich lebe fuer dich"
PERFORMER "Adoro"
ISRC DEUM71203719
INDEX 01 00:00:00
FILE "08 Vom selben Stern.wav" WAVE
TRACK 08 AUDIO
TITLE "Vom selben Stern"
PERFORMER "Adoro"
ISRC DEUM71203726
INDEX 01 00:00:00
FILE "09 Stadt.wav" WAVE
TRACK 09 AUDIO
TITLE "Stadt"
PERFORMER "Adoro"
ISRC DEUM71203735
INDEX 01 00:00:00
FILE "10 Eiserner Steg.wav" WAVE
TRACK 10 AUDIO
TITLE "Eiserner Steg"
PERFORMER "Adoro"
ISRC DEUM71203736
INDEX 01 00:00:00
FILE "11 Die Liebe ist eine Rose.wav" WAVE
TRACK 11 AUDIO
TITLE "Die Liebe ist eine Rose"
PERFORMER "Adoro"
ISRC DEUM71203737
INDEX 01 00:00:00
FILE "12 Fuer immer jung.wav" WAVE
TRACK 12 AUDIO
TITLE "Fuer immer jung"
PERFORMER "Adoro"
ISRC DEUM71203738
INDEX 01 00:00:00
FILE "13 Dein ist mein ganzes Herz (Duett mit Helene Fischer).wav" WAVE
TRACK 13 AUDIO
TITLE "Dein ist mein ganzes Herz (Duett mit Helene Fischer)"
PERFORMER "Adoro"
ISRC DEUM71203739
INDEX 01 00:00:00

Лог проверки качества

[CUETools log; Date: 08.01.2014 11:19:04; Version: 2.1.5]
[CTDB TOCID: Dz26QnR_Vgoi3a.6RYK0wvvd24U-] found.
Track | CTDB Status
1 | (33/33) Accurately ripped
2 | (33/33) Accurately ripped
3 | (33/33) Accurately ripped
4 | (33/33) Accurately ripped
5 | (33/33) Accurately ripped
6 | (32/33) Accurately ripped
7 | (33/33) Accurately ripped
8 | (33/33) Accurately ripped
9 | (33/33) Accurately ripped
10 | (33/33) Accurately ripped
11 | (33/33) Accurately ripped
12 | (33/33) Accurately ripped
13 | (33/33) Accurately ripped
[AccurateRip ID: 001a0805-01038ba6-bf0c3f0d] found.
Track [ CRC | V2 ] Status
01 [db2170cd|51e97291] (00+13/13) Accurately ripped
02 [125527f6|000e7dbd] (00+13/13) Accurately ripped
03 [4c17bbab|ade678c2] (00+13/13) Accurately ripped
04 [bc7d4870|4bc142d4] (00+13/13) Accurately ripped
05 [54d0b6e4|0cdcaf93] (00+13/13) Accurately ripped
06 [c299f6c9|9c0fb539] (00+12/12) Accurately ripped
07 [415375a6|c4a8ed94] (00+13/13) Accurately ripped
08 [5cfd730e|2e62fc5a] (00+13/13) Accurately ripped
09 [63ed5be2|5491178c] (00+13/13) Accurately ripped
10 [f20e3097|ac6c7095] (00+13/13) Accurately ripped
11 [0c310001|f974dc93] (00+13/13) Accurately ripped
12 [bbfc303e|bc35680f] (00+13/13) Accurately ripped
13 [d90ca14b|5e9271c3] (00+10/10) Accurately ripped
Track Peak [ CRC32 ] [W/O NULL] [ LOG ]
-- 99,9 [6D531211] [0A0A901A]
01 98,6 [751AB0DB] [DBDE94C6] CRC32
02 98,6 [6428401C] [9A3D45C4] CRC32
03 98,6 [BE4D452B] [DB6C3BA9] CRC32
04 98,8 [6541D6F2] [F9A6CC04] CRC32
05 98,6 [6AF2C4BB] [171A4E6A] CRC32
06 98,7 [DD59DAEA] [3E615632] CRC32
07 98,6 [70A5A25F] [3F2DC480] CRC32
08 98,8 [AF9329C3] [9EC1FF51] CRC32
09 98,7 [C1974C58] [A2032D24] CRC32
10 98,6 [A046A6E9] [0C1FE4FE] CRC32
11 98,6 [0421A05E] [DDC0DC51] CRC32
12 98,6 [2FE834B3] [28E1EF38] CRC32
13 99,9 [5101A743] [9B3E084C] CRC32

2011 Liebe meines Lebens

Треклист:
Adoro - "Liebe meines Lebens" (2011)
Tracks: 12
Total time: 49:47
Year: 2011
Disc-ID: classical / b40bb00c
1. Halt dich an mir fest 4:43
2. Für Dich 4:37
3. Universum 4:30
4. Bitte hör nicht auf zu träumen 4:06
5. Große Freiheit 4:28
6. Dein Lied 3:51
7. Still 4:48
8. Dein ist mein ganzes Herz 3:06
9. Tanz der Moleküle 3:37
10. Liebe meines Lebens 4:11
11. Für mich soll's rote Rosen regnen 4:00
12. Wunder gescheh'n 3:50

Лог создания рипа

Exact Audio Copy V1.0 beta 3 from 29. August 2011
EAC extraction logfile from 8. January 2014, 11:16
Adoro / Liebe meines Lebens
Used drive : PLEXTOR CD-R PX-W4012A Adapter: 2 ID: 0
Read mode : Secure
Utilize accurate stream : Yes
Defeat audio cache : Yes
Make use of C2 pointers : No
Read offset correction : 98
Overread into Lead-In and Lead-Out : No
Fill up missing offset samples with silence : Yes
Delete leading and trailing silent blocks : No
Null samples used in CRC calculations : Yes
Used interface : Native Win32 interface for Win NT & 2000
Gap handling : Appended to previous track
Used output format : User Defined Encoder
Selected bitrate : 1024 kBit/s
Quality : High
Add ID3 tag : No
Command line compressor : C:\Program Files (x86)\Exact Audio Copy\Flac\flac.exe
Additional command line options : -V -8 -T "Genre=%genre%" -T "Artist=%artist%" -T "Title=%title%" -T "Album=%albumtitle%" -T "Date=%year%" -T "Tracknumber=%tracknr%" -T "Comment=%comment%" %source%
TOC of the extracted CD
Track | Start | Length | Start sector | End sector
---------------------------------------------------------
1 | 0:00.00 | 4:43.25 | 0 | 21249
2 | 4:43.25 | 4:37.49 | 21250 | 42073
3 | 9:20.74 | 4:30.08 | 42074 | 62331
4 | 13:51.07 | 4:06.44 | 62332 | 80825
5 | 17:57.51 | 4:28.61 | 80826 | 100986
6 | 22:26.37 | 3:51.28 | 100987 | 118339
7 | 26:17.65 | 4:48.71 | 118340 | 140010
8 | 31:06.61 | 3:06.35 | 140011 | 153995
9 | 34:13.21 | 3:37.72 | 153996 | 170342
10 | 37:51.18 | 4:11.09 | 170343 | 189176
11 | 42:02.27 | 4:00.27 | 189177 | 207203
12 | 46:02.54 | 3:49.49 | 207204 | 224427
Track 1
Filename C:\H\Adoro\Adoro - Liebe meines Lebens [FLAC] {2011}\01 Halt dich an mir fest.wav
Pre-gap length 0:00:02.00
Peak level 95.2 %
Extraction speed 8.6 X
Track quality 100.0 %
Test CRC 1B0E020C
Copy CRC 1B0E020C
Accurately ripped (confidence 21) [BE1C6452] (AR v2)
Copy OK
Track 2
Filename C:\H\Adoro\Adoro - Liebe meines Lebens [FLAC] {2011}\02 Fuer Dich.wav
Peak level 97.5 %
Extraction speed 9.6 X
Track quality 100.0 %
Test CRC FAF41C04
Copy CRC FAF41C04
Accurately ripped (confidence 21) [541E3989] (AR v2)
Copy OK
Track 3
Filename C:\H\Adoro\Adoro - Liebe meines Lebens [FLAC] {2011}\03 Universum.wav
Peak level 97.5 %
Extraction speed 10.5 X
Track quality 100.0 %
Test CRC 0DE21ED5
Copy CRC 0DE21ED5
Accurately ripped (confidence 20) [3C40ED5E] (AR v2)
Copy OK
Track 4
Filename C:\H\Adoro\Adoro - Liebe meines Lebens [FLAC] {2011}\04 Bitte hoer nicht auf zu traeumen.wav
Peak level 97.5 %
Extraction speed 11.2 X
Track quality 100.0 %
Test CRC 011EBD34
Copy CRC 011EBD34
Accurately ripped (confidence 21) [7A41FEAE] (AR v2)
Copy OK
Track 5
Filename C:\H\Adoro\Adoro - Liebe meines Lebens [FLAC] {2011}\05 Grosse Freiheit.wav
Peak level 98.3 %
Extraction speed 12.0 X
Track quality 100.0 %
Test CRC 3A9EF8A2
Copy CRC 3A9EF8A2
Accurately ripped (confidence 19) [B4A2A620] (AR v2)
Copy OK
Track 6
Filename C:\H\Adoro\Adoro - Liebe meines Lebens [FLAC] {2011}\06 Dein Lied.wav
Peak level 97.5 %
Extraction speed 10.7 X
Track quality 99.9 %
Test CRC 7EE78856
Copy CRC 7EE78856
Accurately ripped (confidence 20) [3E2BFF7C] (AR v2)
Copy OK
Track 7
Filename C:\H\Adoro\Adoro - Liebe meines Lebens [FLAC] {2011}\07 Still.wav
Peak level 92.0 %
Extraction speed 13.4 X
Track quality 100.0 %
Test CRC 0820619C
Copy CRC 0820619C
Accurately ripped (confidence 19) [4E9EF397] (AR v2)
Copy OK
Track 8
Filename C:\H\Adoro\Adoro - Liebe meines Lebens [FLAC] {2011}\08 Dein ist mein ganzes Herz.wav
Peak level 97.9 %
Extraction speed 13.4 X
Track quality 100.0 %
Test CRC 8377BEAA
Copy CRC 8377BEAA
Accurately ripped (confidence 20) [A64E1745] (AR v2)
Copy OK
Track 9
Filename C:\H\Adoro\Adoro - Liebe meines Lebens [FLAC] {2011}\09 Tanz der Molekuele.wav
Peak level 98.4 %
Extraction speed 14.1 X
Track quality 100.0 %
Test CRC DCEDCD29
Copy CRC DCEDCD29
Accurately ripped (confidence 20) [DA2EA11B] (AR v2)
Copy OK
Track 10
Filename C:\H\Adoro\Adoro - Liebe meines Lebens [FLAC] {2011}\10 Liebe meines Lebens.wav
Peak level 98.1 %
Extraction speed 14.7 X
Track quality 100.0 %
Test CRC E901227E
Copy CRC E901227E
Accurately ripped (confidence 21) [C76E7F1F] (AR v2)
Copy OK
Track 11
Filename C:\H\Adoro\Adoro - Liebe meines Lebens [FLAC] {2011}\11 Fuer mich soll's rote Rosen regnen.wav
Peak level 97.7 %
Extraction speed 12.5 X
Track quality 99.9 %
Test CRC 9FD73607
Copy CRC 9FD73607
Accurately ripped (confidence 21) [30F7AA68] (AR v2)
Copy OK
Track 12
Filename C:\H\Adoro\Adoro - Liebe meines Lebens [FLAC] {2011}\12 Wunder gescheh'n.wav
Peak level 97.4 %
Extraction speed 8.0 X
Track quality 100.0 %
Test CRC 4AD48DDB
Copy CRC 4AD48DDB
Accurately ripped (confidence 20) [E48DC454] (AR v2)
Copy OK
All tracks accurately ripped
No errors occurred
End of status report
==== Log checksum B75204047D2A5C454AC7DE64E6C566688D4B9C711B9C8914AFED826915B14DEE ====

Содержание индексной карты (.CUE)

REM GENRE Classical
REM DATE 2011
REM DISCID B40BB00C
REM COMMENT "ExactAudioCopy v1.0b3"
CATALOG 0602527856278
PERFORMER "Adoro"
TITLE "Liebe meines Lebens"
FILE "01 Halt dich an mir fest.wav" WAVE
TRACK 01 AUDIO
TITLE "Halt dich an mir fest"
PERFORMER "Adoro"
ISRC DEUM71103455
INDEX 01 00:00:00
FILE "02 Fuer Dich.wav" WAVE
TRACK 02 AUDIO
TITLE "Fuer Dich"
PERFORMER "Adoro"
ISRC DEUM71103468
INDEX 01 00:00:00
FILE "03 Universum.wav" WAVE
TRACK 03 AUDIO
TITLE "Universum"
PERFORMER "Adoro"
ISRC DEUM71103457
INDEX 01 00:00:00
FILE "04 Bitte hoer nicht auf zu traeumen.wav" WAVE
TRACK 04 AUDIO
TITLE "Bitte hoer nicht auf zu traeumen"
PERFORMER "Adoro"
ISRC DEUM71103459
INDEX 01 00:00:00
FILE "05 Grosse Freiheit.wav" WAVE
TRACK 05 AUDIO
TITLE "Grosse Freiheit"
PERFORMER "Adoro"
ISRC DEUM71103460
INDEX 01 00:00:00
FILE "06 Dein Lied.wav" WAVE
TRACK 06 AUDIO
TITLE "Dein Lied"
PERFORMER "Adoro"
ISRC DEUM71103458
INDEX 01 00:00:00
INDEX 02 03:51:28
FILE "07 Still.wav" WAVE
TRACK 07 AUDIO
TITLE "Still"
PERFORMER "Adoro"
ISRC DEUM71103462
INDEX 01 00:00:00
FILE "08 Dein ist mein ganzes Herz.wav" WAVE
TRACK 08 AUDIO
TITLE "Dein ist mein ganzes Herz"
PERFORMER "Adoro"
ISRC DEUM71103463
INDEX 01 00:00:00
FILE "09 Tanz der Molekuele.wav" WAVE
TRACK 09 AUDIO
TITLE "Tanz der Molekuele"
PERFORMER "Adoro"
ISRC DEUM71103464
INDEX 01 00:00:00
FILE "10 Liebe meines Lebens.wav" WAVE
TRACK 10 AUDIO
TITLE "Liebe meines Lebens"
PERFORMER "Adoro"
ISRC DEUM71103465
INDEX 01 00:00:00
FILE "11 Fuer mich soll's rote Rosen regnen.wav" WAVE
TRACK 11 AUDIO
TITLE "Fuer mich soll's rote Rosen regnen"
PERFORMER "Adoro"
ISRC DEUM71103466
INDEX 01 00:00:00
FILE "12 Wunder gescheh'n.wav" WAVE
TRACK 12 AUDIO
TITLE "Wunder gescheh'n"
PERFORMER "Adoro"
ISRC DEUM71103467
INDEX 01 00:00:00

Лог проверки качества

[CUETools log; Date: 08.01.2014 11:18:27; Version: 2.1.5]
[CTDB TOCID: FMhztIeo5IHzCaQHFR4qw6VFZxg-] found.
Track | CTDB Status
1 | (50/50) Accurately ripped
2 | (50/50) Accurately ripped
3 | (50/50) Accurately ripped
4 | (50/50) Accurately ripped
5 | (50/50) Accurately ripped
6 | (50/50) Accurately ripped
7 | (50/50) Accurately ripped
8 | (50/50) Accurately ripped
9 | (50/50) Accurately ripped
10 | (50/50) Accurately ripped
11 | (50/50) Accurately ripped
12 | (50/50) Accurately ripped
[AccurateRip ID: 00170e38-00d4dfcc-b40bb00c] found.
Track [ CRC | V2 ] Status
01 [23ae8970|be1c6452] (04+21/25) Accurately ripped
02 [9df80d34|541e3989] (04+21/25) Accurately ripped
03 [20ee5bfa|3c40ed5e] (04+20/24) Accurately ripped
04 [c49f24a9|7a41feae] (04+21/25) Accurately ripped
05 [82ca156a|b4a2a620] (04+19/23) Accurately ripped
06 [62a523db|3e2bff7c] (04+20/24) Accurately ripped
07 [ac8cbbf8|4e9ef397] (04+19/23) Accurately ripped
08 [2914ce47|a64e1745] (04+20/24) Accurately ripped
09 [133c71e2|da2ea11b] (04+20/24) Accurately ripped
10 [93b6b37d|c76e7f1f] (04+21/25) Accurately ripped
11 [921d3dbf|30f7aa68] (04+21/25) Accurately ripped
12 [4bbf3c51|e48dc454] (04+20/24) Accurately ripped
Track Peak [ CRC32 ] [W/O NULL] [ LOG ]
-- 98,4 [35B6128B] [70408AE9]
01 95,2 [1B0E020C] [39AA83B4] CRC32
02 97,5 [FAF41C04] [39697F55] CRC32
03 97,5 [0DE21ED5] [0EBDAAC6] CRC32
04 97,5 [011EBD34] [8A8F3A73] CRC32
05 98,3 [3A9EF8A2] [51C4929E] CRC32
06 97,5 [7EE78856] [E52A714F] CRC32
07 92,0 [0820619C] [D03821AC] CRC32
08 97,9 [8377BEAA] [9C384D85] CRC32
09 98,4 [DCEDCD29] [1E432146] CRC32
10 98,1 [E901227E] [1F9F7BC2] CRC32
11 97,7 [9FD73607] [58189F8E] CRC32
12 97,4 [4AD48DDB] [0DEDD52C] CRC32

2010 Glück

Треклист:
Adoro - "Glück" (2010)
Tracks: 11
Total time: 48:15
Year: 2010
Disc-ID: classical / 860b520b
1. Prélude/Intro 2:36
2. Halt mich fest (Take on me) 4:07
3. Geboren um zu leben 5:05
4. Gib mir Sonne 4:34
5. Nessaja 5:20
6. Engel fliegen einsam 4:17
7. Helden (Heroes) 3:53
8. Leuchtturm 3:27
9. Wie der Wind sich dreht (Wind of Change) 5:41
10. Geweint vor Glück 4:18
11. Wieder hier 4:57

Лог создания рипа

Exact Audio Copy V1.0 beta 3 from 29. August 2011
EAC extraction logfile from 9. January 2014, 14:48
Adoro / Glueck
Used drive : PLEXTOR CD-R PX-W4012A Adapter: 2 ID: 0
Read mode : Secure
Utilize accurate stream : Yes
Defeat audio cache : Yes
Make use of C2 pointers : No
Read offset correction : 98
Overread into Lead-In and Lead-Out : No
Fill up missing offset samples with silence : Yes
Delete leading and trailing silent blocks : No
Null samples used in CRC calculations : Yes
Used interface : Native Win32 interface for Win NT & 2000
Gap handling : Appended to previous track
Used output format : User Defined Encoder
Selected bitrate : 1024 kBit/s
Quality : High
Add ID3 tag : No
Command line compressor : C:\Program Files (x86)\Exact Audio Copy\Flac\flac.exe
Additional command line options : -V -8 -T "Genre=%genre%" -T "Artist=%artist%" -T "Title=%title%" -T "Album=%albumtitle%" -T "Date=%year%" -T "Tracknumber=%tracknr%" -T "Comment=%comment%" %source%
TOC of the extracted CD
Track | Start | Length | Start sector | End sector
---------------------------------------------------------
1 | 0:00.00 | 2:36.18 | 0 | 11717
2 | 2:36.18 | 4:07.45 | 11718 | 30287
3 | 6:43.63 | 5:05.25 | 30288 | 53187
4 | 11:49.13 | 4:34.41 | 53188 | 73778
5 | 16:23.54 | 5:20.22 | 73779 | 97800
6 | 21:44.01 | 4:17.00 | 97801 | 117075
7 | 26:01.01 | 3:53.32 | 117076 | 134582
8 | 29:54.33 | 3:27.25 | 134583 | 150132
9 | 33:21.58 | 5:41.18 | 150133 | 175725
10 | 39:03.01 | 4:18.73 | 175726 | 195148
11 | 43:21.74 | 4:56.21 | 195149 | 217369
Track 1
Filename C:\H\Adoro\Adoro - Glueck [FLAC] {2010}\01 Prélude,Intro.wav
Pre-gap length 0:00:02.00
Peak level 98.0 %
Extraction speed 8.2 X
Track quality 100.0 %
Test CRC 25952F99
Copy CRC 25952F99
Accurately ripped (confidence 25) [2357A317] (AR v2)
Copy OK
Track 2
Filename C:\H\Adoro\Adoro - Glueck [FLAC] {2010}\02 Halt mich fest (Take on me).wav
Peak level 96.5 %
Extraction speed 9.1 X
Track quality 100.0 %
Test CRC 1E303E0D
Copy CRC 1E303E0D
Accurately ripped (confidence 27) [8A39B22C] (AR v2)
Copy OK
Track 3
Filename C:\H\Adoro\Adoro - Glueck [FLAC] {2010}\03 Geboren um zu leben.wav
Peak level 98.7 %
Extraction speed 10.1 X
Track quality 100.0 %
Test CRC BD5255A4
Copy CRC BD5255A4
Accurately ripped (confidence 27) [0EFDB8CF] (AR v2)
Copy OK
Track 4
Filename C:\H\Adoro\Adoro - Glueck [FLAC] {2010}\04 Gib mir Sonne.wav
Peak level 98.7 %
Extraction speed 9.6 X
Track quality 99.9 %
Test CRC ED8F20AB
Copy CRC ED8F20AB
Accurately ripped (confidence 27) [83DEA265] (AR v2)
Copy OK
Track 5
Filename C:\H\Adoro\Adoro - Glueck [FLAC] {2010}\05 Nessaja.wav
Peak level 100.0 %
Extraction speed 11.9 X
Track quality 100.0 %
Test CRC 950C539F
Copy CRC 950C539F
Accurately ripped (confidence 27) [670B93F8] (AR v2)
Copy OK
Track 6
Filename C:\H\Adoro\Adoro - Glueck [FLAC] {2010}\06 Engel fliegen einsam.wav
Peak level 98.8 %
Extraction speed 12.3 X
Track quality 100.0 %
Test CRC C63685A3
Copy CRC C63685A3
Accurately ripped (confidence 27) [9F30212B] (AR v2)
Copy OK
Track 7
Filename C:\H\Adoro\Adoro - Glueck [FLAC] {2010}\07 Helden (Heroes).wav
Pre-gap length 0:00:01.36
Peak level 98.7 %
Extraction speed 7.6 X
Track quality 100.0 %
Test CRC 7EECD080
Copy CRC 7EECD080
Accurately ripped (confidence 27) [5C65246F] (AR v2)
Copy OK
Track 8
Filename C:\H\Adoro\Adoro - Glueck [FLAC] {2010}\08 Leuchtturm.wav
Peak level 99.1 %
Extraction speed 13.3 X
Track quality 100.0 %
Test CRC E16F0254
Copy CRC E16F0254
Accurately ripped (confidence 27) [BC043392] (AR v2)
Copy OK
Track 9
Filename C:\H\Adoro\Adoro - Glueck [FLAC] {2010}\09 Wie der Wind sich dreht (Wind of Change).wav
Peak level 99.9 %
Extraction speed 7.0 X
Track quality 100.0 %
Test CRC 1A61D0E0
Copy CRC 1A61D0E0
Accurately ripped (confidence 27) [955ABC9D] (AR v2)
Copy OK
Track 10
Filename C:\H\Adoro\Adoro - Glueck [FLAC] {2010}\10 Geweint vor Glueck.wav
Pre-gap length 0:00:02.01
Peak level 99.0 %
Extraction speed 3.7 X
Track quality 99.9 %
Test CRC 092ADB37
Copy CRC 092ADB37
Accurately ripped (confidence 27) [818B5B3C] (AR v2)
Copy OK
Track 11
Filename C:\H\Adoro\Adoro - Glueck [FLAC] {2010}\11 Wieder hier.wav
Peak level 98.8 %
Extraction speed 4.0 X
Track quality 100.0 %
Test CRC EB8395A4
Copy CRC EB8395A4
Accurately ripped (confidence 27) [70278EAD] (AR v2)
Copy OK
All tracks accurately ripped
No errors occurred
End of status report
==== Log checksum EBEF850AA0D7B1483C6E69FF0ADC71E33E088EC4C8837C6C2623CA58A4CC7034 ====

Содержание индексной карты (.CUE)

REM GENRE Classical
REM DATE 2010
REM DISCID 860B520B
REM COMMENT "ExactAudioCopy v1.0b3"
CATALOG 0602527537917
PERFORMER "Adoro"
TITLE "Glueck"
FILE "01 Prélude,Intro.wav" WAVE
TRACK 01 AUDIO
TITLE "Prélude/Intro"
PERFORMER "Adoro"
ISRC DEUM71017669
INDEX 01 00:00:00
FILE "02 Halt mich fest (Take on me).wav" WAVE
TRACK 02 AUDIO
TITLE "Halt mich fest (Take on me)"
PERFORMER "Adoro"
ISRC DEUM71017659
INDEX 01 00:00:00
FILE "03 Geboren um zu leben.wav" WAVE
TRACK 03 AUDIO
TITLE "Geboren um zu leben"
PERFORMER "Adoro"
ISRC DEUM71017660
INDEX 01 00:00:00
FILE "04 Gib mir Sonne.wav" WAVE
TRACK 04 AUDIO
TITLE "Gib mir Sonne"
PERFORMER "Adoro"
ISRC DEUM71017658
INDEX 01 00:00:00
FILE "05 Nessaja.wav" WAVE
TRACK 05 AUDIO
TITLE "Nessaja"
PERFORMER "Adoro"
ISRC DEUM71017661
INDEX 01 00:00:00
FILE "06 Engel fliegen einsam.wav" WAVE
TRACK 06 AUDIO
TITLE "Engel fliegen einsam"
PERFORMER "Adoro"
ISRC DEUM71017665
INDEX 01 00:00:00
TRACK 07 AUDIO
TITLE "Helden (Heroes)"
PERFORMER "Adoro"
ISRC DEUM71017662
INDEX 00 04:15:39
FILE "07 Helden (Heroes).wav" WAVE
INDEX 01 00:00:00
FILE "08 Leuchtturm.wav" WAVE
TRACK 08 AUDIO
TITLE "Leuchtturm"
PERFORMER "Adoro"
ISRC DEUM71017668
INDEX 01 00:00:00
FILE "09 Wie der Wind sich dreht (Wind of Change).wav" WAVE
TRACK 09 AUDIO
TITLE "Wie der Wind sich dreht (Wind of Change)"
PERFORMER "Adoro"
ISRC DEUM71017667
INDEX 01 00:00:00
TRACK 10 AUDIO
TITLE "Geweint vor Glueck"
PERFORMER "Adoro"
ISRC DEUM71017666
INDEX 00 05:39:17
FILE "10 Geweint vor Glueck.wav" WAVE
INDEX 01 00:00:00
FILE "11 Wieder hier.wav" WAVE
TRACK 11 AUDIO
TITLE "Wieder hier"
PERFORMER "Adoro"
ISRC DEUM71017663
INDEX 01 00:00:00

Лог проверки качества

[CUETools log; Date: 09.01.2014 14:50:17; Version: 2.1.5]
[CTDB TOCID: J1zdRGeiD09zh0jwlIY2Aocu2Wg-] found.
Track | CTDB Status
1 | (42/42) Accurately ripped
2 | (42/42) Accurately ripped
3 | (42/42) Accurately ripped
4 | (42/42) Accurately ripped
5 | (42/42) Accurately ripped
6 | (42/42) Accurately ripped
7 | (42/42) Accurately ripped
8 | (42/42) Accurately ripped
9 | (42/42) Accurately ripped
10 | (41/42) Accurately ripped
11 | (40/42) Accurately ripped
[AccurateRip ID: 00132d6b-00a87eb6-860b520b] found.
Track [ CRC | V2 ] Status
01 [947536ec|2357a317] (15+25/42) Accurately ripped
02 [f8ff87e5|8a39b22c] (16+27/43) Accurately ripped
03 [ec93d5f3|0efdb8cf] (15+27/42) Accurately ripped
04 [25aff539|83dea265] (15+27/42) Accurately ripped
05 [58f61c3b|670b93f8] (15+27/42) Accurately ripped
06 [69e3510c|9f30212b] (15+27/42) Accurately ripped
07 [7212044d|5c65246f] (15+27/42) Accurately ripped
08 [66cd9495|bc043392] (15+27/42) Accurately ripped
09 [17cf8a8d|955abc9d] (15+27/42) Accurately ripped
10 [94637a60|818b5b3c] (15+27/42) Accurately ripped
11 [a3c02bec|70278ead] (16+27/43) Accurately ripped
Track Peak [ CRC32 ] [W/O NULL] [ LOG ]
-- 100,0 [7C50FEBF] [EEEEE65A]
01 98,0 [25952F99] [CE0527BE] CRC32
02 96,5 [1E303E0D] [0A41C5C9] CRC32
03 98,7 [BD5255A4] [5D20DA0B] CRC32
04 98,7 [ED8F20AB] [22ECB859] CRC32
05 100,0 [950C539F] [F3C07F77] CRC32
06 98,8 [C63685A3] [32E5AE48] CRC32
07 98,7 [7EECD080] [8B33C459] CRC32
08 99,1 [E16F0254] [9DD297CC] CRC32
09 99,9 [1A61D0E0] [E61CB352] CRC32
10 99,0 [092ADB37] [F01F8ADE] CRC32
11 98,8 [EB8395A4] [5221CA58] CRC32

2009 Für immer und dich

Треклист:
Adoro - "Für immer und dich" (2009)
Tracks: 11
Total time: 47:20
Year: 2010
Disc-ID: classical / 970b1c0b
1. Liebe ist 5:08
2. Freiheit 3:25
3. Für immer und dich 4:35
4. Ich bin ich (Wir sind wir) 4:26
5. Halt mich 3:59
6. Ich glaube 4:11
7. So soll es bleiben 3:50
8. Als ich fortging 3:51
9. Sie sieht mich nicht 4:45
10. Schlaflied (Kein Stern der fällt) 4:22
11. Horizont (Bonus Titel) 4:48

Лог создания рипа

Exact Audio Copy V1.0 beta 3 from 29. August 2011
EAC extraction logfile from 8. January 2014, 12:40
Adoro / Fuer immer und dich
Used drive : PLEXTOR CD-R PX-W4012A Adapter: 2 ID: 0
Read mode : Secure
Utilize accurate stream : Yes
Defeat audio cache : Yes
Make use of C2 pointers : No
Read offset correction : 98
Overread into Lead-In and Lead-Out : No
Fill up missing offset samples with silence : Yes
Delete leading and trailing silent blocks : No
Null samples used in CRC calculations : Yes
Used interface : Native Win32 interface for Win NT & 2000
Gap handling : Appended to previous track
Used output format : User Defined Encoder
Selected bitrate : 1024 kBit/s
Quality : High
Add ID3 tag : No
Command line compressor : C:\Program Files (x86)\Exact Audio Copy\Flac\flac.exe
Additional command line options : -V -8 -T "Genre=%genre%" -T "Artist=%artist%" -T "Title=%title%" -T "Album=%albumtitle%" -T "Date=%year%" -T "Tracknumber=%tracknr%" -T "Comment=%comment%" %source%
TOC of the extracted CD
Track | Start | Length | Start sector | End sector
---------------------------------------------------------
1 | 0:00.00 | 5:08.47 | 0 | 23146
2 | 5:08.47 | 3:25.60 | 23147 | 38581
3 | 8:34.32 | 4:35.05 | 38582 | 59211
4 | 13:09.37 | 4:26.06 | 59212 | 79167
5 | 17:35.43 | 3:59.32 | 79168 | 97124
6 | 21:35.00 | 4:11.40 | 97125 | 115989
7 | 25:46.40 | 3:50.65 | 115990 | 133304
8 | 29:37.30 | 3:51.19 | 133305 | 150648
9 | 33:28.49 | 4:45.61 | 150649 | 172084
10 | 38:14.35 | 4:22.06 | 172085 | 191740
11 | 42:36.41 | 4:48.33 | 191741 | 213373
Track 1
Filename C:\H\Adoro\Adoro - Fuer immer und dich [FLAC] {2009}\01 Liebe ist.wav
Pre-gap length 0:00:02.00
Peak level 96.5 %
Extraction speed 8.6 X
Track quality 100.0 %
Test CRC B4B749C1
Copy CRC B4B749C1
Accurately ripped (confidence 2) [3123F7FF] (AR v1)
Copy OK
Track 2
Filename C:\H\Adoro\Adoro - Fuer immer und dich [FLAC] {2009}\02 Freiheit.wav
Peak level 98.8 %
Extraction speed 9.4 X
Track quality 100.0 %
Test CRC CFE22772
Copy CRC CFE22772
Accurately ripped (confidence 2) [4375ADAB] (AR v1)
Copy OK
Track 3
Filename C:\H\Adoro\Adoro - Fuer immer und dich [FLAC] {2009}\03 Fuer immer und dich.wav
Peak level 98.8 %
Extraction speed 10.4 X
Track quality 100.0 %
Test CRC 18435E43
Copy CRC 18435E43
Accurately ripped (confidence 2) [C9A9C844] (AR v1)
Copy OK
Track 4
Filename C:\H\Adoro\Adoro - Fuer immer und dich [FLAC] {2009}\04 Ich bin ich (Wir sind wir).wav
Peak level 91.3 %
Extraction speed 11.1 X
Track quality 100.0 %
Test CRC 0145EC26
Copy CRC 0145EC26
Accurately ripped (confidence 2) [3FBB76DF] (AR v1)
Copy OK
Track 5
Filename C:\H\Adoro\Adoro - Fuer immer und dich [FLAC] {2009}\05 Halt mich.wav
Peak level 98.6 %
Extraction speed 11.7 X
Track quality 100.0 %
Test CRC 4B0FC436
Copy CRC 4B0FC436
Accurately ripped (confidence 2) [ED3604B0] (AR v1)
Copy OK
Track 6
Filename C:\H\Adoro\Adoro - Fuer immer und dich [FLAC] {2009}\06 Ich glaube.wav
Peak level 98.6 %
Extraction speed 12.4 X
Track quality 100.0 %
Test CRC 762B0994
Copy CRC 762B0994
Accurately ripped (confidence 2) [310E1AF1] (AR v1)
Copy OK
Track 7
Filename C:\H\Adoro\Adoro - Fuer immer und dich [FLAC] {2009}\07 So soll es bleiben.wav
Peak level 96.7 %
Extraction speed 13.0 X
Track quality 100.0 %
Test CRC BC816A70
Copy CRC BC816A70
Accurately ripped (confidence 2) [9F0A3D95] (AR v1)
Copy OK
Track 8
Filename C:\H\Adoro\Adoro - Fuer immer und dich [FLAC] {2009}\08 Als ich fortging.wav
Peak level 98.8 %
Extraction speed 13.5 X
Track quality 100.0 %
Test CRC 276C57F8
Copy CRC 276C57F8
Accurately ripped (confidence 2) [2FE7AA1A] (AR v1)
Copy OK
Track 9
Filename C:\H\Adoro\Adoro - Fuer immer und dich [FLAC] {2009}\09 Sie sieht mich nicht.wav
Peak level 98.6 %
Extraction speed 14.3 X
Track quality 100.0 %
Test CRC FB95A581
Copy CRC FB95A581
Accurately ripped (confidence 2) [765CE57E] (AR v1)
Copy OK
Track 10
Filename C:\H\Adoro\Adoro - Fuer immer und dich [FLAC] {2009}\10 Schlaflied (Kein Stern der faellt).wav
Peak level 90.8 %
Extraction speed 14.9 X
Track quality 100.0 %
Test CRC F1ECC764
Copy CRC F1ECC764
Accurately ripped (confidence 2) [DA3A21E1] (AR v1)
Copy OK
Track 11
Filename C:\H\Adoro\Adoro - Fuer immer und dich [FLAC] {2009}\11 Horizont (Bonus Titel).wav
Peak level 98.6 %
Extraction speed 13.8 X
Track quality 100.0 %
Test CRC 7FD68C57
Copy CRC 7FD68C57
Accurately ripped (confidence 2) [49A57756] (AR v1)
Copy OK
All tracks accurately ripped
No errors occurred
End of status report
==== Log checksum 67767F19BF9D623B58263DF1364FB10C555446D4059885164EE3BBD53027BA28 ====

Содержание индексной карты (.CUE)

REM GENRE Classical
REM DATE 2009
REM DISCID 970B1C0B
REM COMMENT "ExactAudioCopy v1.0b3"
CATALOG 0602527209715
PERFORMER "Adoro"
TITLE "Fuer immer und dich"
FILE "01 Liebe ist.wav" WAVE
TRACK 01 AUDIO
TITLE "Liebe ist"
PERFORMER "Adoro"
ISRC DEUM70905267
INDEX 01 00:00:00
FILE "02 Freiheit.wav" WAVE
TRACK 02 AUDIO
TITLE "Freiheit"
PERFORMER "Adoro"
ISRC DEUM70905268
INDEX 01 00:00:00
FILE "03 Fuer immer und dich.wav" WAVE
TRACK 03 AUDIO
TITLE "Fuer immer und dich"
PERFORMER "Adoro"
ISRC DEUM70905269
INDEX 01 00:00:00
FILE "04 Ich bin ich (Wir sind wir).wav" WAVE
TRACK 04 AUDIO
TITLE "Ich bin ich (Wir sind wir)"
PERFORMER "Adoro"
ISRC DEUM70905270
INDEX 01 00:00:00
FILE "05 Halt mich.wav" WAVE
TRACK 05 AUDIO
TITLE "Halt mich"
PERFORMER "Adoro"
ISRC DEUM70905271
INDEX 01 00:00:00
FILE "06 Ich glaube.wav" WAVE
TRACK 06 AUDIO
TITLE "Ich glaube"
PERFORMER "Adoro"
ISRC DEUM70905272
INDEX 01 00:00:00
FILE "07 So soll es bleiben.wav" WAVE
TRACK 07 AUDIO
TITLE "So soll es bleiben"
PERFORMER "Adoro"
ISRC DEUM70905273
INDEX 01 00:00:00
FILE "08 Als ich fortging.wav" WAVE
TRACK 08 AUDIO
TITLE "Als ich fortging"
PERFORMER "Adoro"
ISRC DEUM70905274
INDEX 01 00:00:00
FILE "09 Sie sieht mich nicht.wav" WAVE
TRACK 09 AUDIO
TITLE "Sie sieht mich nicht"
PERFORMER "Adoro"
ISRC DEUM70905275
INDEX 01 00:00:00
FILE "10 Schlaflied (Kein Stern der faellt).wav" WAVE
TRACK 10 AUDIO
TITLE "Schlaflied (Kein Stern der faellt)"
PERFORMER "Adoro"
ISRC DEUM70905276
INDEX 01 00:00:00
FILE "11 Horizont (Bonus Titel).wav" WAVE
TRACK 11 AUDIO
TITLE "Horizont (Bonus Titel)"
PERFORMER "Adoro"
ISRC DEUM70804851
INDEX 01 00:00:00

Лог проверки качества

[CUETools log; Date: 08.01.2014 12:41:41; Version: 2.1.5]
[CTDB TOCID: kltRSvIVN4FmFl4JtfxUy4H_4V4-] found.
Track | CTDB Status
1 | (42/42) Accurately ripped
2 | (42/42) Accurately ripped
3 | (42/42) Accurately ripped
4 | (42/42) Accurately ripped
5 | (42/42) Accurately ripped
6 | (42/42) Accurately ripped
7 | (42/42) Accurately ripped
8 | (42/42) Accurately ripped
9 | (42/42) Accurately ripped
10 | (42/42) Accurately ripped
11 | (42/42) Accurately ripped
[AccurateRip ID: 0013720a-00a7e143-970b1c0b] found.
Track [ CRC | V2 ] Status
01 [3123f7ff|54159885] (02+00/76) Accurately ripped
02 [4375adab|2de75a9d] (02+00/76) Accurately ripped
03 [c9a9c844|394e24d3] (02+00/76) Accurately ripped
04 [3fbb76df|85482f69] (02+00/76) Accurately ripped
05 [ed3604b0|c6210e66] (02+00/76) Accurately ripped
06 [310e1af1|5530e290] (02+00/77) Accurately ripped
07 [9f0a3d95|e3457ea4] (02+00/76) Accurately ripped
08 [2fe7aa1a|c90284b9] (02+00/76) Accurately ripped
09 [765ce57e|0b628aeb] (02+00/77) Accurately ripped
10 [da3a21e1|4c5c2850] (02+00/77) Accurately ripped
11 [49a57756|3de5d2ce] (02+00/77) Accurately ripped
Offsetted by 634:
01 [9a305c36] (06/76) Accurately ripped
02 [23e05a0a] (06/76) Accurately ripped
03 [ee3013e7] (06/76) Accurately ripped
04 [7308a646] (06/76) Accurately ripped
05 [5ce5ebe8] (06/76) Accurately ripped
06 [dd3713f7] (06/77) Accurately ripped
07 [9bdb0e09] (06/76) Accurately ripped
08 [453b9c77] (06/76) Accurately ripped
09 [80acbc35] (06/77) Accurately ripped
10 [123966bb] (06/77) Accurately ripped
11 [52d40bca] (06/77) Accurately ripped
Offsetted by 646:
01 [ebf1fbbe] (42/76) Accurately ripped
02 [6f60b2ce] (42/76) Accurately ripped
03 [bfe065bd] (42/76) Accurately ripped
04 [b20751bc] (41/76) Accurately ripped
05 [a2d91978] (42/76) Accurately ripped
06 [eaf8dceb] (42/77) Accurately ripped
07 [62753721] (42/76) Accurately ripped
08 [380e416d] (42/76) Accurately ripped
09 [ae1b5f17] (42/77) Accurately ripped
10 [51779207] (42/77) Accurately ripped
11 [2764ace2] (42/77) Accurately ripped
Track Peak [ CRC32 ] [W/O NULL] [ LOG ]
-- 98,8 [194542A5] [C6225885]
01 96,5 [B4B749C1] [BFEC000C] CRC32
02 98,8 [CFE22772] [C2CB35DC] CRC32
03 98,8 [18435E43] [0E691E6D] CRC32
04 91,3 [0145EC26] [74B0D70F] CRC32
05 98,6 [4B0FC436] [F822FBB2] CRC32
06 98,6 [762B0994] [46399ECA] CRC32
07 96,7 [BC816A70] [3076E950] CRC32
08 98,8 [276C57F8] [1508BCAC] CRC32
09 98,6 [FB95A581] [333B0C0E] CRC32
10 90,8 [F1ECC764] [758B73B0] CRC32
11 98,6 [7FD68C57] [1AFB697C] CRC32

2008 Adoro

Треклист:
Adoro - "Adoro" (2008)
Tracks: 13
Total time: 50:22
Year: 2008
Disc-ID: rock / a30bd40d
1. Ouvertüre (Intro) 2:02
2. Liebe ist alles 3:22
3. Und wenn ein Lied 4:58
4. Irgendwie, irgendwo, irgendwann 4:22
5. Ohne dich 4:21
6. Flugzeuge im Bauch 4:40
7. Engel 3:04
8. Es wird für ewig sein (Caruso) 4:54
9. Dieser Weg 3:49
10. Über sieben Brücken 4:34
11. Du erinnerst mich an Liebe 4:00
12. Mercì Cherie 3:03
13. Finale (Outro) 3:13

Лог создания рипа

Exact Audio Copy V1.0 beta 3 from 29. August 2011
EAC extraction logfile from 9. January 2014, 19:46
Adoro / Adoro
Used drive : PLEXTOR CD-R PX-W4012A Adapter: 2 ID: 0
Read mode : Secure
Utilize accurate stream : Yes
Defeat audio cache : Yes
Make use of C2 pointers : No
Read offset correction : 98
Overread into Lead-In and Lead-Out : No
Fill up missing offset samples with silence : Yes
Delete leading and trailing silent blocks : No
Null samples used in CRC calculations : Yes
Used interface : Native Win32 interface for Win NT & 2000
Gap handling : Appended to previous track
Used output format : User Defined Encoder
Selected bitrate : 1024 kBit/s
Quality : High
Add ID3 tag : No
Command line compressor : C:\Program Files (x86)\Exact Audio Copy\Flac\flac.exe
Additional command line options : -V -8 -T "Genre=%genre%" -T "Artist=%artist%" -T "Title=%title%" -T "Album=%albumtitle%" -T "Date=%year%" -T "Tracknumber=%tracknr%" -T "Comment=%comment%" %source%
TOC of the extracted CD
Track | Start | Length | Start sector | End sector
---------------------------------------------------------
1 | 0:00.00 | 2:02.69 | 0 | 9218
2 | 2:02.69 | 3:22.38 | 9219 | 24406
3 | 5:25.32 | 4:58.01 | 24407 | 46757
4 | 10:23.33 | 4:22.60 | 46758 | 66467
5 | 14:46.18 | 4:21.57 | 66468 | 86099
6 | 19:08.00 | 4:40.42 | 86100 | 107141
7 | 23:48.42 | 3:04.26 | 107142 | 120967
8 | 26:52.68 | 4:54.37 | 120968 | 143054
9 | 31:47.30 | 3:49.01 | 143055 | 160230
10 | 35:36.31 | 4:34.20 | 160231 | 180800
11 | 40:10.51 | 4:00.66 | 180801 | 198866
12 | 44:11.42 | 3:03.70 | 198867 | 212661
13 | 47:15.37 | 3:12.40 | 212662 | 227101
Track 1
Filename C:\H\Adoro\01 Ouvertuere (Intro).wav
Pre-gap length 0:00:02.00
Peak level 91.2 %
Extraction speed 8.0 X
Track quality 100.0 %
Test CRC D8917303
Copy CRC D8917303
Accurately ripped (confidence 38) [39371F86] (AR v2)
Copy OK
Track 2
Filename C:\H\Adoro\02 Liebe ist alles.wav
Peak level 98.8 %
Extraction speed 7.7 X
Track quality 99.9 %
Test CRC 85C4A259
Copy CRC 85C4A259
Accurately ripped (confidence 37) [2C7EACC0] (AR v2)
Copy OK
Track 3
Filename C:\H\Adoro\03 Und wenn ein Lied.wav
Peak level 98.0 %
Extraction speed 9.8 X
Track quality 100.0 %
Test CRC 93A6A67E
Copy CRC 93A6A67E
Accurately ripped (confidence 37) [F930A02D] (AR v2)
Copy OK
Track 4
Filename C:\H\Adoro\04 Irgendwie, irgendwo, irgendwann.wav
Peak level 100.0 %
Extraction speed 10.7 X
Track quality 100.0 %
Test CRC CBBB5640
Copy CRC CBBB5640
Accurately ripped (confidence 37) [4A938BEE] (AR v2)
Copy OK
Track 5
Filename C:\H\Adoro\05 Ohne dich.wav
Peak level 98.1 %
Extraction speed 11.4 X
Track quality 100.0 %
Test CRC 6473ED8D
Copy CRC 6473ED8D
Accurately ripped (confidence 37) [B6A9574E] (AR v2)
Copy OK
Track 6
Filename C:\H\Adoro\06 Flugzeuge im Bauch.wav
Peak level 98.1 %
Extraction speed 12.1 X
Track quality 100.0 %
Test CRC 449A70AD
Copy CRC 449A70AD
Accurately ripped (confidence 37) [3220D15D] (AR v2)
Copy OK
Track 7
Filename C:\H\Adoro\07 Engel.wav
Peak level 98.8 %
Extraction speed 6.7 X
Track quality 100.0 %
Test CRC 9878F134
Copy CRC 9878F134
Accurately ripped (confidence 37) [6A127003] (AR v2)
Copy OK
Track 8
Filename C:\H\Adoro\08 Es wird fuer ewig sein (Caruso).wav
Peak level 98.6 %
Extraction speed 7.8 X
Track quality 99.9 %
Test CRC AB306739
Copy CRC AB306739
Accurately ripped (confidence 37) [F5C23BB4] (AR v2)
Copy OK
Track 9
Filename C:\H\Adoro\09 Dieser Weg.wav
Peak level 98.1 %
Extraction speed 3.4 X
Track quality 100.0 %
Test CRC 66576CD7
Copy CRC 66576CD7
Accurately ripped (confidence 37) [5B2396E9] (AR v2)
Copy OK
Track 10
Filename C:\H\Adoro\10 Ueber sieben Bruecken.wav
Peak level 98.2 %
Extraction speed 1.3 X
Track quality 100.0 %
Test CRC 9B73EFBF
Copy CRC 9B73EFBF
Accurately ripped (confidence 37) [87BCD54A] (AR v2)
Copy OK
Track 11
Filename C:\H\Adoro\11 Du erinnerst mich an Liebe.wav
Peak level 82.4 %
Extraction speed 0.9 X
Track quality 99.9 %
Test CRC 7DEE6824
Copy CRC 7DEE6824
Accurately ripped (confidence 37) [3179A2DD] (AR v2)
Copy OK
Track 12
Filename C:\H\Adoro\12 Mercì Cherie.wav
Peak level 98.4 %
Extraction speed 0.2 X
Track quality 99.9 %
Test CRC 118268EE
Copy CRC 118268EE
Accurately ripped (confidence 37) [882D3420] (AR v2)
Copy OK
Track 13
Filename C:\H\Adoro\13 Finale (Outro).wav
Peak level 98.1 %
Extraction speed 0.6 X
Track quality 100.0 %
Test CRC B868379A
Copy CRC B868379A
Accurately ripped (confidence 38) [1E6398A4] (AR v2)
Copy OK
All tracks accurately ripped
No errors occurred
End of status report
==== Log checksum D82A74F520C40014AAABBF1D617F41CF45645C54C8D8EF770670044A4D229B81 ====

Содержание индексной карты (.CUE)

REM GENRE Classical
REM DATE 2008
REM DISCID A30BD40D
REM COMMENT "ExactAudioCopy v1.0b3"
CATALOG 0602517895881
PERFORMER "Adoro"
TITLE "Adoro"
FILE "01 Ouvertuere (Intro).wav" WAVE
TRACK 01 AUDIO
TITLE "Ouvertuere (Intro)"
PERFORMER "Adoro"
ISRC DEUM70807534
INDEX 01 00:00:00
FILE "02 Liebe ist alles.wav" WAVE
TRACK 02 AUDIO
TITLE "Liebe ist alles"
PERFORMER "Adoro"
ISRC DEUM70804846
INDEX 01 00:00:00
FILE "03 Und wenn ein Lied.wav" WAVE
TRACK 03 AUDIO
TITLE "Und wenn ein Lied"
PERFORMER "Adoro"
ISRC DEUM70804847
INDEX 01 00:00:00
FILE "04 Irgendwie, irgendwo, irgendwann.wav" WAVE
TRACK 04 AUDIO
TITLE "Irgendwie, irgendwo, irgendwann"
PERFORMER "Adoro"
ISRC DEUM70804848
INDEX 01 00:00:00
FILE "05 Ohne dich.wav" WAVE
TRACK 05 AUDIO
TITLE "Ohne dich"
PERFORMER "Adoro"
ISRC DEUM70804849
INDEX 01 00:00:00
FILE "06 Flugzeuge im Bauch.wav" WAVE
TRACK 06 AUDIO
TITLE "Flugzeuge im Bauch"
PERFORMER "Adoro"
ISRC DEUM70804850
INDEX 01 00:00:00
FILE "07 Engel.wav" WAVE
TRACK 07 AUDIO
TITLE "Engel"
PERFORMER "Adoro"
ISRC DEUM70804853
INDEX 01 00:00:00
FILE "08 Es wird fuer ewig sein (Caruso).wav" WAVE
TRACK 08 AUDIO
TITLE "Es wird fuer ewig sein (Caruso)"
PERFORMER "Adoro"
ISRC DEUM70804852
INDEX 01 00:00:00
FILE "09 Dieser Weg.wav" WAVE
TRACK 09 AUDIO
TITLE "Dieser Weg"
PERFORMER "Adoro"
ISRC DEUM70804855
INDEX 01 00:00:00
FILE "10 Ueber sieben Bruecken.wav" WAVE
TRACK 10 AUDIO
TITLE "Ueber sieben Bruecken"
PERFORMER "Adoro"
ISRC DEUM70804856
INDEX 01 00:00:00
FILE "11 Du erinnerst mich an Liebe.wav" WAVE
TRACK 11 AUDIO
TITLE "Du erinnerst mich an Liebe"
PERFORMER "Adoro"
ISRC DEUM70804854
INDEX 01 00:00:00
FILE "12 Mercì Cherie.wav" WAVE
TRACK 12 AUDIO
TITLE "Mercì Cherie"
PERFORMER "Adoro"
ISRC DEUM70804857
INDEX 01 00:00:00
FILE "13 Finale (Outro).wav" WAVE
TRACK 13 AUDIO
TITLE "Finale (Outro)"
PERFORMER "Adoro"
ISRC DEUM70807535
INDEX 01 00:00:00

Лог проверки качества

[CUETools log; Date: 09.01.2014 19:47:42; Version: 2.1.5]
[CTDB TOCID: KgRjARLn6KyyAEk4UfSKM8IMGpg-] found.
Track | CTDB Status
1 | (53/54) Accurately ripped
2 | (54/54) Accurately ripped
3 | (54/54) Accurately ripped
4 | (54/54) Accurately ripped
5 | (54/54) Accurately ripped
6 | (54/54) Accurately ripped
7 | (54/54) Accurately ripped
8 | (54/54) Accurately ripped
9 | (54/54) Accurately ripped
10 | (54/54) Accurately ripped
11 | (54/54) Accurately ripped
12 | (53/54) Accurately ripped
13 | (54/54) Accurately ripped
[AccurateRip ID: 00182aa4-00f4f898-a30bd40d] found.
Track [ CRC | V2 ] Status
01 [33e8e610|39371f86] (066+038/104) Accurately ripped
02 [bc0b22d9|2c7eacc0] (066+037/103) Accurately ripped
03 [bb462745|f930a02d] (066+037/103) Accurately ripped
04 [6eca3e35|4a938bee] (066+037/103) Accurately ripped
05 [f351f639|b6a9574e] (066+037/103) Accurately ripped
06 [e423c607|3220d15d] (066+037/103) Accurately ripped
07 [1ce64d82|6a127003] (066+037/103) Accurately ripped
08 [9e396427|f5c23bb4] (066+037/103) Accurately ripped
09 [6512a147|5b2396e9] (066+037/103) Accurately ripped
10 [401d9d54|87bcd54a] (066+037/103) Accurately ripped
11 [93c0c70d|3179a2dd] (066+037/103) Accurately ripped
12 [0406b93f|882d3420] (066+037/103) Accurately ripped
13 [69389f01|1e6398a4] (066+038/104) Accurately ripped
Offsetted by -12:
01 [e75c54bd] (000/104) No match
02 [30fb3560] (000/103) No match
03 [968bc035] (000/103) No match
04 [39c40385] (000/103) No match (V2 was not tested)
05 [39a967fb] (000/103) No match (V2 was not tested)
06 [efbf2cf1] (000/103) No match (V2 was not tested)
07 [20c6552a] (000/103) No match (V2 was not tested)
08 [2876aa7f] (000/103) No match (V2 was not tested)
09 [8d2e84a7] (000/103) No match (V2 was not tested)
10 [60453dd8] (000/103) No match (V2 was not tested)
11 [37a0f2e5] (000/103) No match (V2 was not tested)
12 [a7dce271] (000/103) No match (V2 was not tested)
13 [d65de6b3] (000/104) No match (V2 was not tested)
Track Peak [ CRC32 ] [W/O NULL] [ LOG ]
-- 100,0 [B7C9A1BE] [7F938BD5]
01 91,2 [D8917303] [C1912420] CRC32
02 98,8 [85C4A259] [44A7BA9C] CRC32
03 98,0 [93A6A67E] [AEAA9978] CRC32
04 100,0 [CBBB5640] [876D0D06] CRC32
05 98,1 [6473ED8D] [0C86D254] CRC32
06 98,1 [449A70AD] [2BB6A227] CRC32
07 98,8 [9878F134] [240C3E12] CRC32
08 98,6 [AB306739] [36C8F914] CRC32
09 98,1 [66576CD7] [7F279EFB] CRC32
10 98,2 [9B73EFBF] [56D57598] CRC32
11 82,4 [7DEE6824] [98B6271A] CRC32
12 98,4 [118268EE] [A08B7B21] CRC32
13 98,1 [B868379A] [CC87C1BA] CRC32
Дополнительно:



Показать сообщения:    

Текущее время: 06-Дек 15:12

Часовой пояс: UTC + 3


Вы не можете начинать темы
Вы не можете отвечать на сообщения
Вы не можете редактировать свои сообщения
Вы не можете удалять свои сообщения
Вы не можете голосовать в опросах
Вы не можете прикреплять файлы к сообщениям
Вы не можете скачивать файлы