(Pop / Classical Crossover) Jose Carreras & Sarah Brightman - Amigos Para Siempre (Friends For Life)(CDSingle) - 1992, FLAC (tracks+.cue), lossless


 

[Цитировать]

Jose Carreras & Sarah Brightman / Amigos Para Siempre (Friends For Life)
Жанр: Pop / Classical Crossover
Страна-производитель диска: UK
Год издания: 1992
Издатель (лейбл): The Really Useful Group LTD
Номер по каталогу: UK - RURCD 10/INT - 863 308-2
Аудиокодек: FLAC (*.flac)
Тип рипа: tracks+.cue
Битрейт аудио: lossless
Продолжительность: 00:12:58
Источник (релизер): Собственный CD
Наличие сканов в содержимом раздачи: нет
Треклист:
01 Amigos Para Siempre (Friends For Life)
02 Opening Ceremony Barcelona 1992 Games
03 Amigos Para Siempre (Spanish Version)

Лог создания рипа

Exact Audio Copy V1.0 beta 3 from 29. August 2011
Отчёт EAC об извлечении, выполненном 31. марта 2012, 20:04
José Carreras & Sarah Brightman / Friends For Life
Дисковод: HL-DT-STDVDRAM GSA-T50N Adapter: 0 ID: 1
Режим чтения : Достоверность
Использование точного потока : Да
Отключение кэша аудио : Да
Использование указателей C2 : Нет
Коррекция смещения при чтении : 667
Способность читать области Lead-in и Lead-out : Нет
Заполнение пропущенных сэмплов тишиной : Да
Удаление блоков с тишиной в начале и конце : Нет
При вычислениях CRC использовались нулевые сэмплы : Да
Интерфейс : Встроенный Win32-интерфейс для Win NT/2000
Обработка зазоров : Добавлено к предыдущему треку
Выходной формат : Пользовательский кодировщик
Выбранный битрейт : 896 kBit/s
Качество : Высокий
Добавление ID3-тега : Нет
Утилита сжатия : C:\Program Files\Exact Audio Copy\FLAC\FLAC.EXE
Дополнительные параметры : -6 -V -T "ARTIST=%artist%" -T "TITLE=%title%" -T "ALBUM=%albumtitle%" -T "DATE=%year%" -T "TRACKNUMBER=%tracknr%" -T "GENRE=%genre%" -T "COMMENT=%comment%" -T "BAND=%albuminterpret%" -T "ALBUMARTIST=%albuminterpret%" -T "COMPOSER=%composer%" %haslyrics%--tag-from-file=LYRICS="%lyricsfile%"%haslyrics% -T "DISCNUMBER=%cdnumber%" -T "TOTALDISCS=%totalcds%" -T "TOTALTRACKS=%numtracks%" %hascover%--picture="%coverfile%"%hascover% %source% -o %dest%
TOC извлечённого CD
Трек | Старт | Длительность | Начальный сектор | Конечный сектор
---------------------------------------------------------------------
1 | 0:00.00 | 4:36.62 | 0 | 20761
2 | 4:36.62 | 3:44.13 | 20762 | 37574
3 | 8:21.00 | 4:35.15 | 37575 | 58214
Трек 1
Имя файла H:\RuTracker.org - раздачи\Sarah Brightman\Friends For Life\01. Friends For Life.wav
Длина предзазора 0:00:02.00
Пиковый уровень 97.7 %
Скорость извлечения 2.4 X
Качество трека 100.0 %
CRC теста 3064D0DF
CRC копии 3064D0DF
Точное извлечение (достоверность 4) [3DD29DDA] (AR v1)
Копирование... OK
Трек 2
Имя файла H:\RuTracker.org - раздачи\Sarah Brightman\Friends For Life\02. Opening Ceremony Barcelona 1992 Games.wav
Длина предзазора 0:00:00.43
Пиковый уровень 97.1 %
Скорость извлечения 2.7 X
Качество трека 100.0 %
CRC теста 7ACBB3D4
CRC копии 7ACBB3D4
Точное извлечение (достоверность 4) [FD232FC6] (AR v1)
Копирование... OK
Трек 3
Имя файла H:\RuTracker.org - раздачи\Sarah Brightman\Friends For Life\03. Amigos Para siempre (Spanish Version).wav
Длина предзазора 0:00:02.55
Пиковый уровень 97.7 %
Скорость извлечения 3.0 X
Качество трека 100.0 %
CRC теста 996FFB86
CRC копии 996FFB86
Точное извлечение (достоверность 4) [C4337375] (AR v1)
Копирование... OK
Все треки извлечены точно
Ошибок не произошло
Конец отчёта
==== Контрольная сумма отчёта 4176E9DAF69AF4264A7EC38851040C7C7238CB1A438F691D877DCB2BCA2A6A20 ====

Содержание индексной карты (.CUE)

REM GENRE Crossover
REM DATE 1992
REM DISCID 1B030803
REM COMMENT "ExactAudioCopy v1.0b3"
PERFORMER "Jose Carreras & Sarah Brightman"
TITLE "Friends For Life"
FILE "Friends For Life\01. Friends For Life.wav" WAVE
TRACK 01 AUDIO
TITLE "Friends For Life"
PERFORMER "Jose Carreras & Sarah Brightman"
INDEX 01 00:00:00
TRACK 02 AUDIO
TITLE "Opening Ceremony Barcelona 1992 Games"
PERFORMER "Jose Carreras & Sarah Brightman"
INDEX 00 04:36:19
FILE "Friends For Life\02. Opening Ceremony Barcelona 1992 Games.wav" WAVE
INDEX 01 00:00:00
TRACK 03 AUDIO
TITLE "Amigos Para siempre (Spanish Version)"
PERFORMER "Jose Carreras & Sarah Brightman"
INDEX 00 03:41:33
FILE "Friends For Life\03. Amigos Para siempre (Spanish Version).wav" WAVE
INDEX 01 00:00:00

Лог проверки качества

AUDIOCHECKER v2.0 beta (build 457) - by Dester - opdester@freemail.hu
~~~~~~~~~~~~~~~~~~~~~~~~~~~~~~~~~~
-=== DO NOT EDIT THIS FILE! ===-
Path: ...\Friends For Life
1 -=- 01. Friends For Life.flac -=- CDDA (100%)
2 -=- 02. Opening Ceremony Barcelona 1992 Games.flac -=- CDDA (100%)
3 -=- 03. Amigos Para siempre (Spanish Version).flac -=- CDDA (100%)
Summary 100,00% CDDA
198010292

Скриншот спектра частот




Показать сообщения:    

Текущее время: 07-Дек 15:34

Часовой пояс: UTC + 3


Вы не можете начинать темы
Вы не можете отвечать на сообщения
Вы не можете редактировать свои сообщения
Вы не можете удалять свои сообщения
Вы не можете голосовать в опросах
Вы не можете прикреплять файлы к сообщениям
Вы не можете скачивать файлы