Вадим Козин. Это было… было… (Главная редакция музыкальных программ ЦТ) [1989, документальный, музыкальный, биография, DVB]


Статистика раздачи [Обновить пиров]
Размер:  427 MB   |    Зарегистрирован:  8 месяцев 18 дней   |    Скачан:  0 раз

Полного источника не было: Никогда

 
   
 
 
 

[Цитировать]

Вадим Козин
Это было… было…- Год выпуска: 1989
Страна: СССР
Жанр: документальный, музыкальный, биография
Продолжительность: 00:20:20
Перевод: Не требуется
Русские субтитры: нет
Производство: Главная редакция музыкальных программ ЦТ
Описание: В этой передаче вы снова встретитесь с замечательным мастером нашей эстрады Вадимом Алексеевичем Козиным. Вы увидите кадры, снятые в Магадане во время работы над передачей «Два портрета на звуковой дорожке: И. Юрьева, В. Козин», но в передачу не вошедшие. И все же, как нам кажется, они представляют большой интерес для поклонников таланта артиста.
Доп. информация: Собственная запись со спутника (канал «Ностальгия», пакет НТВ+).
Качество: DVB
Формат: TS
Видео кодек: MPEG2
Аудио кодек: MP2
Видео: MPEG Video 2, 704x576@768x576 (4:3), 25 fps, ~2595 kbps avg
Аудио: 48 kHz, MPEG Audio 2, 2 ch, ~192.00 kbps avg

MediaInfo

Идентификатор                            : 1 (0x1)
Полное имя : H:\My Torrents\[apreder]Vadim_Kozin_This_Is_My_Time(1989).ts
Формат : MPEG-TS
Размер файла : 427 Мбайт
Продолжительность : 20 м.
Режим общего битрейта : Переменный
Общий поток : 2934 Кбит/сек
Видео
Идентификатор : 224 (0xE0)
Идентификатор меню : 258 (0x102)
Формат : MPEG Video
Версия формата : Version 2
Профиль формата : Main@Main
Параметр BVOP формата : Да
Параметр матрицы формата : Выборочная
Параметр GOP формата : M=3, N=24
Идентификатор кодека : 2
Продолжительность : 20 м.
Вид битрейта : Переменный
Битрейт : 2595 Кбит/сек
Максимальный битрейт : 15,0 Мбит/сек
Ширина : 704 пикселя
Высота : 576 пикселей
Соотношение сторон : 4:3
Частота кадров : 25,000 кадров/сек
Стандарт вещания : PAL
Цветовое пространство : YUV
Субдискретизация насыщенности : 4:2:0
Битовая глубина : 8 бит
Тип развёртки : Чересстрочная
Порядок развёртки : Верхнее поле первое
Метод сжатия : С потерями
Бит/(Пиксели*Кадры) : 0.256
Размер потока : 377 Мбайт (88%)
Аудио
Идентификатор : 192 (0xC0)
Идентификатор меню : 258 (0x102)
Формат : MPEG Audio
Версия формата : Version 1
Профиль формата : Layer 2
Идентификатор кодека : 3
Продолжительность : 20 м.
Вид битрейта : Постоянный
Битрейт : 192 Кбит/сек
Каналы : 2 канала
Частота : 48,0 КГц
Метод сжатия : С потерями
Задержка видео : -474 мс.
Размер потока : 27,9 Мбайт (7%)
Язык : German
Язык, дополнительно : Clean effects

Скриншоты

Скриншоты араморфированные

[teatrix.ru].t16241.torrent 
Торрент: Зарегистрирован [ 2016-03-15 12:03 ] · 5126D795D0EFBA72AB31FE9BB56DC68BCD0D5E0A

Скачать .torrent

Скачать

17 KB

Статус: проверено
Скачан: 0 раз
Размер: 427 MB
terms.php



Быстрый ответ

Имя:

      
Для отправки сообщений необходимо включить JavaScript
Показать сообщения:    

Текущее время: 03-Дек 01:21

Часовой пояс: UTC + 3


Вы можете начинать темы
Вы можете отвечать на сообщения
Вы не можете редактировать свои сообщения
Вы не можете удалять свои сообщения
Вы не можете голосовать в опросах
Вы не можете прикреплять файлы к сообщениям
Вы можете скачивать файлы