Закрытый показ. Дом ветра (14.04.2012) [2012, ТВ-дискуссия, DVB]


Статистика раздачи [Обновить пиров]
Размер:  1.88 GB   |    Зарегистрирован:  8 месяцев 25 дней   |    Скачан:  0 раз

Полного источника не было: Никогда

 
   
 
 
 

[Цитировать]

Закрытый показ. Дом ветра (14.04.2012)
Год выпуска: 2012
Страна: Россия
Жанр: ТВ-дискуссия
Продолжительность: 56мин
Автор и ведущий: Александр Гордон

Описание

Описание: Программа Александра Гордона "Закрытый показ" традиционно знакомит зрителей Первого канала с самыми громкими и неоднозначными картинами. В программе - обсуждение фильма "Дом ветра" Вячеслава Златопольского.
Фильм "Дом ветра" получил следующие награды и премии:
- Приз имени Станислава и Андрея Ростоцких "За лучшую женскую роль" Полине Кутеповой, на XIX кинофестивале российского кино "Окно в Европу", Выборг, 2011
- Гран-при на IX Московском фестивале отечественного кино "Московская премьера", Москва, 2011
- Золотой гепард "За лучшую женскую роль", Полине Кутеповой на Ташкентском международном кинофестивале "Золотой гепард", Узбекистан, 2011
- Приз "За лучшую женскую роль" Полине Кутеповой на VI кинофестивале российских фильмов "Липецкий выбор", Липецк, 2011
- Приз "За лучший игровой фильм" фильму "Дом ветра", режиссёра Вячеслава Златопольского на кинофестивале российских фильмов "Человек, познающий мир", Липецк, 2011
-Приз "За игровой фильм" фильму "Дом ветра", режиссёра Вячеслава Златопольского на XVII Международного фестиваля фильмов о правах человека "Сталкер" , 2011
Съемочная группа:
Дэник Неверов актёр фильма "Дом ветра"
Валерий Баринов народный артист России, актёр фильма "Дом ветра"
Полина Кутепова заслуженная артистка России, актриса фильма "Дом ветра"
Александр Ильин заслуженный артист России, актёр фильма "Дом ветра"
Денис Кулютников актёр фильма "Дом ветра"
Максим Хусаинов генеральный продюсер фильма "Дом ветра"
Вячеслав Златопольский режиссёр фильма "Дом ветра"
Позиция "За":
Евгений Киндинов актёр театра и кино, народный артист РФ
Егор Кончаловский режиссёр
Сергей Гинзбург режиссёр
Евгений Герасимов народный артист РФ, депутат МГД
Алла Сурикова народная артистка России (педагог Вячеслава Златопольского)
Вадим Демчог актёр, режиссёр, создатель авторских программ на радио и телевидении
Позиция "Против":
Сергей Белоголовцев актёр, телеведущий
Алёна Солнцева кинокритик
Андрей Кравчук режиссёр
Ярослав Чеважевский режиссёр, сценарист
Михаил Ратгауз кинокритик
Елена Драпеко заслуженная артистка РФ, депутат ГДРФ

Доп. информация

Дом ветра
Россия, 2011, 103 мин., цв.
Режиссер: Вячеслав Златопольский
Сценарий: Алексей Тимм
В ролях: Полина Кутепова, Дэник Неверов, Валерий Баринов, Александр Ильин, Елена Морозова, Алексей Завьялов
Оператор: Радик Аскаров
Композитор: Владимир Панков
Производство Кинематограф "Третье Тысячелетие".
Таисия Левшина, дворничиха детской инфекционной больницы, узнает, что ее сын, пропавший без вести на южной границе десять лет назад, на самом деле погиб. И, чтобы заполнить болезненную пустоту в душе, Тая забирает, фактически крадет из больницы семилетнего мальчика-азиата Тимура - Тёму, который по диагнозу и всем медицинским показаниям обречен на скорый уход…
Качество: DVB
Формат: MPG
Видео кодек: MPEG2
Аудио кодек: MP2
Видео: MPEG-2; 720x576 (16:9)@1024x576, 25.00fps, ~4100 Kbps
Аудио: 48 kHz, 2 ch, 192 kbps, mp2

Скриншоты

MI

Общее
Полное имя : E:\MPEG\Zakryty.pokaz_Dom.vetra.14.04.2012.DVB.Doc66.mpg
Формат : MPEG-PS
Размер файла : 1,88 Гбайт
Продолжительность : 1 ч. 0 м.
Режим общего битрейта : Переменный
Общий поток : 4439 Кбит/сек
Видео
Идентификатор : 224 (0xE0)
Формат : MPEG Video
Версия формата : Version 2
Профиль формата : Main@Main
Параметр BVOP формата : Да
Параметр матрицы формата : Выборочная
Продолжительность : 1 ч. 0 м.
Вид битрейта : Переменный
Битрейт : 4159 Кбит/сек
Максимальный битрейт : 15,0 Мбит/сек
Ширина : 720 пикселей
Высота : 576 пикселей
Соотношение сторон : 16:9
Частота кадров : 25,000 кадров/сек
Стандарт вещания : PAL
Цветовое пространство : YUV
Субдискретизация насыщенности : 4:2:0
Битовая глубина : 8 бит
Тип развёртки : Чересстрочная
Порядок развёртки : Верхнее поле первое
Метод сжатия : С потерями
Бит/(Пиксели*Кадры) : 0.401
Размер потока : 1,76 Гбайт (94%)
Аудио
Идентификатор : 192 (0xC0)
Формат : MPEG Audio
Версия формата : Version 1
Профиль формата : Layer 2
Продолжительность : 1 ч. 0 м.
Вид битрейта : Постоянный
Битрейт : 192 Кбит/сек
Каналы : 2 канала
Частота : 48,0 КГц
Метод сжатия : С потерями
Размер потока : 83,2 Мбайт (4%)
[teatrix.ru].t16242.torrent 
Торрент: Зарегистрирован [ 2016-03-15 12:03 ] · C23B11042CDFF34A122E155A9B1203D6240159C2

Скачать .torrent

Скачать

38 KB

Статус: проверено
Скачан: 0 раз
Размер: 1.88 GB
terms.php



Показать сообщения:    

Текущее время: 09-Дек 12:43

Часовой пояс: UTC + 3


Вы не можете начинать темы
Вы не можете отвечать на сообщения
Вы не можете редактировать свои сообщения
Вы не можете удалять свои сообщения
Вы не можете голосовать в опросах
Вы не можете прикреплять файлы к сообщениям
Вы можете скачивать файлы