Нота (Олег Дорман) [2012, Фильм-портрет, HDRip]


Статистика раздачи [Обновить пиров]
Размер:  3.17 GB   |    Зарегистрирован:  8 месяцев 21 день   |    Скачан:  0 раз

Полного источника не было: Никогда

 
   
 
 
 

[Цитировать]

Нота
Год выпуска: 2012
Страна: Россия
Жанр: Фильм-портрет
Продолжительность: 01:29:42
Перевод: Не требуется
Русские субтитры: нет
Режиссер: Олег Дорман
Описание: Фильм о дирижере Рудольфе Борисовиче Баршае.
Качество: HDRip
Формат: M4V
Видео кодек: H.264
Аудио кодек: AAC
Видео: H.264, 960x720@1280x720 (16:9), анаморф, 4937 kbps, 25,000 fps
Аудио: AAC-LC, 128 kbps, 44.1 kHz, 2 канала stereo, русский

MediaInfo

Общее
Полное имя : D:\Downloads\Films\NOTA RUSSIAN-H.264 for Apple TV.m4v
Формат : MPEG-4
Профиль формата : Apple TV
Идентификатор кодека : M4VH
Размер файла : 3,17 Гбайт
Продолжительность : 1 ч. 29 м.
Режим общего битрейта : Переменный
Общий поток : 5065 Кбит/сек
Дата кодирования : UTC 2012-04-28 20:02:40
Дата пометки : UTC 2012-04-28 20:05:03
Видео
Идентификатор : 1
Формат : AVC
Формат/Информация : Advanced Video Codec
Профиль формата : Main@L3.1
Параметр CABAC формата : Нет
Параметр ReFrames формата : 2 кадра
Идентификатор кодека : avc1
Идентификатор кодека/Информация : Advanced Video Coding
Продолжительность : 1 ч. 29 м.
Вид битрейта : Переменный
Битрейт : 4937 Кбит/сек
Максимальный битрейт : 12,7 Мбит/сек
Ширина : 960 пикселей
Высота : 720 пикселей
Соотношение сторон : 16:9
Режим частоты кадров : Постоянный
Частота кадров : 25,000 кадров/сек
Цветовое пространство : YUV
Субдискретизация насыщенности : 4:2:0
Битовая глубина : 8 бит
Тип развёртки : Прогрессивная
Бит/(Пиксели*Кадры) : 0.286
Размер потока : 3,09 Гбайт (97%)
Язык : English
Дата кодирования : UTC 2012-04-28 20:02:35
Дата пометки : UTC 2012-04-28 20:05:03
Основные цвета : BT.709-5, BT.1361, IEC 61966-2-4, SMPTE RP177
Характеристики трансфера : BT.709-5, BT.1361
Коэффициенты матрицы : BT.709-5, BT.1361, IEC 61966-2-4 709, SMPTE RP177
Аудио
Идентификатор : 2
Формат : AAC
Формат/Информация : Advanced Audio Codec
Профиль формата : LC
Идентификатор кодека : 40
Продолжительность : 1 ч. 29 м.
Вид битрейта : Постоянный
Битрейт : 128 Кбит/сек
Каналы : 2 канала
Расположение каналов : Front: L R
Частота : 44,1 КГц
Метод сжатия : С потерями
Размер потока : 78,6 Мбайт (2%)
Язык : English
Дата кодирования : UTC 2012-04-28 20:02:36
Дата пометки : UTC 2012-04-28 20:05:03
Material_Duration : 5381736
Material_StreamSize : 82373243

Скриншоты

[teatrix.ru].t16252.torrent 
Торрент: Зарегистрирован [ 2016-03-15 12:02 ] · BF84D950078C91EBA8D47CF3F9DE2A567C4B7B4D

Скачать .torrent

Скачать

16 KB

Статус: проверено
Скачан: 0 раз
Размер: 3.17 GB
terms.php



Быстрый ответ

Имя:

      
Для отправки сообщений необходимо включить JavaScript
Показать сообщения:    

Текущее время: 05-Дек 19:39

Часовой пояс: UTC + 3


Вы можете начинать темы
Вы можете отвечать на сообщения
Вы не можете редактировать свои сообщения
Вы не можете удалять свои сообщения
Вы не можете голосовать в опросах
Вы не можете прикреплять файлы к сообщениям
Вы можете скачивать файлы