(Classical) Борис Михеев - домра, Государственный Ансамбль "Россия": Рахманинов, Глинка, Михеев, Лысенко, Подгорный, Штогаренко, Клебанов, Римский-Корсаков - 1983, FLAC (tracks+.cue) lossless


Статистика раздачи [Обновить пиров]
Размер:  319 MB   |    Зарегистрирован:  8 месяцев 22 дня   |    Скачан:  0 раз

Полного источника не было: Никогда

 
   
 
 
 

[Цитировать]

Борис Михеев - домра, Государственный Ансамбль "Россия": Рахманинов, Глинка, Михеев, Лысенко, Подгорный, Штогаренко, Клебанов, Римский-Корсаков
Жанр: Classical
Страна-производитель диска: Россия
Год издания диска: 1983
Издатель (лейбл): Гостелерадио СССР
Дата записи: 1982-1983
Аудиокодек: FLAC
Тип рипа: tracks+.cue
Битрейт аудио: lossless
Продолжительность: 58 минут 28 секунд
Источник: собственный рип
Наличие сканов в содержимом раздачи: да
Треклист:
01 С.Рахманинов. Элегия - 6:06
02 М.Глинка - Л.Ауэр. Жаворонок - 6:17
03 Б.Михеев. Две концертные пьесы для домры с оркестром - 6:17
04 Н.Лысенко. Гавот - 3:15
05 В.Подгорный. Концертино - 6:49
06 А.Штогаренко - Д.Клебанов. Песня - 3:38
07 Н.Римский-Корсаков. Концертная фантазия на темы русских песен - 14:27
08 В.Подгорный. Концерт для домры с оркестром - 11:39
Исполнители:
Борис Михеев - домра
Государственный Ансамбль "Россия". Дирижер - В.Гридин

Лог создания рипа

Exact Audio Copy V1.0 beta 3 from 29. August 2011
Отчёт EAC об извлечении, выполненном 1. мая 2013, 17:25
Борис Михеев / Б.Михеев и ансамбль "Россия"
Дисковод: HL-DT-STDVDRAM GH24NS95 Adapter: 2 ID: 0
Режим чтения : Достоверность
Использование точного потока : Да
Отключение кэша аудио : Да
Использование указателей C2 : Нет
Коррекция смещения при чтении : 6
Способность читать области Lead-in и Lead-out : Нет
Заполнение пропущенных сэмплов тишиной : Да
Удаление блоков с тишиной в начале и конце : Нет
При вычислениях CRC использовались нулевые сэмплы : Да
Интерфейс : Встроенный Win32-интерфейс для Win NT/2000
Обработка зазоров : Добавлено к предыдущему треку
Выходной формат : Пользовательский кодировщик
Выбранный битрейт : 192 kBit/s
Качество : Высокий
Добавление ID3-тега : Нет
Утилита сжатия : C:\Program Files\Exact Audio Copy\Flac\flac.exe
Дополнительные параметры : -V -8 -T "Genre=%genre%" -T "Title=%title%" -T "Artist=%artist%" -T "Composer=%composer%" -T "Album=%albumtitle%" -T "Date=%year%" -T "Tracknumber=%tracknr%" -T "Comment=%comment%" %source%
TOC извлечённого CD
Трек | Старт | Длительность | Начальный сектор | Конечный сектор
---------------------------------------------------------------------
1 | 0:00.00 | 6:05.49 | 0 | 27423
2 | 6:05.49 | 6:15.03 | 27424 | 55551
3 | 12:20.52 | 6:16.39 | 55552 | 83790
4 | 18:37.16 | 3:15.33 | 83791 | 98448
5 | 21:52.49 | 6:48.67 | 98449 | 129115
6 | 28:41.41 | 3:37.64 | 129116 | 145454
7 | 32:19.30 | 14:27.24 | 145455 | 210503
8 | 46:46.54 | 11:39.19 | 210504 | 262947
Трек 1
Имя файла D:\Музыка\Б.Михеев и ансамбль ''Россия''\01 - Элегия.wav
Длина предзазора 0:00:02.00
Пиковый уровень 98.7 %
Скорость извлечения 5.3 X
Качество трека 100.0 %
CRC теста E72DA806
CRC копии E72DA806
Копирование... OK
Трек 2
Имя файла D:\Музыка\Б.Михеев и ансамбль ''Россия''\02 - Жаворонок.wav
Пиковый уровень 97.5 %
Скорость извлечения 5.9 X
Качество трека 100.0 %
CRC теста C57F9885
CRC копии C57F9885
Копирование... OK
Трек 3
Имя файла D:\Музыка\Б.Михеев и ансамбль ''Россия''\03 - Две концертные пьесы для домры с оркестром.wav
Пиковый уровень 91.2 %
Скорость извлечения 6.6 X
Качество трека 100.0 %
CRC теста 75B0B480
CRC копии 75B0B480
Копирование... OK
Трек 4
Имя файла D:\Музыка\Б.Михеев и ансамбль ''Россия''\04 - Гавот.wav
Пиковый уровень 98.0 %
Скорость извлечения 6.4 X
Качество трека 100.0 %
CRC теста 20ADAC92
CRC копии 20ADAC92
Копирование... OK
Трек 5
Имя файла D:\Музыка\Б.Михеев и ансамбль ''Россия''\05 - Концертино.wav
Пиковый уровень 93.1 %
Скорость извлечения 1.8 X
Качество трека 100.0 %
CRC теста FE22FDD5
CRC копии FE22FDD5
Копирование... OK
Трек 6
Имя файла D:\Музыка\Б.Михеев и ансамбль ''Россия''\06 - Песня.wav
Пиковый уровень 97.3 %
Скорость извлечения 1.8 X
Качество трека 100.0 %
CRC теста A67CA940
CRC копии A67CA940
Копирование... OK
Трек 7
Имя файла D:\Музыка\Б.Михеев и ансамбль ''Россия''\07 - Концертная фантазия на темы русских песен.wav
Пиковый уровень 97.5 %
Скорость извлечения 2.2 X
Качество трека 100.0 %
CRC теста 4FD1834B
CRC копии 4FD1834B
Копирование... OK
Трек 8
Имя файла D:\Музыка\Б.Михеев и ансамбль ''Россия''\08 - Концерт для домры с оркестром.wav
Пиковый уровень 97.3 %
Скорость извлечения 2.4 X
Качество трека 100.0 %
CRC теста DFDC30C4
CRC копии DFDC30C4
Копирование... OK
Ошибок не произошло
Конец отчёта
==== Контрольная сумма отчёта 80FB46A1F76DDB53873E344CBA1367FC04C638E66FBE5178BCECEE6F3B281FC8 ====

Содержание индексной карты (.CUE)

REM GENRE Classical
REM DATE 1983
REM DISCID 620DB108
REM COMMENT "ExactAudioCopy v1.0b3"
PERFORMER "Борис Михеев"
TITLE "Б.Михеев и ансамбль 'Россия'"
FILE "01 - Элегия.wav" WAVE
TRACK 01 AUDIO
TITLE "Элегия"
PERFORMER "Борис Михеев"
INDEX 01 00:00:00
FILE "02 - Жаворонок.wav" WAVE
TRACK 02 AUDIO
TITLE "Жаворонок"
PERFORMER "Борис Михеев"
INDEX 01 00:00:00
FILE "03 - Две концертные пьесы для домры с оркестром.wav" WAVE
TRACK 03 AUDIO
TITLE "Две концертные пьесы для домры с оркестром"
PERFORMER "Борис Михеев"
INDEX 01 00:00:00
FILE "04 - Гавот.wav" WAVE
TRACK 04 AUDIO
TITLE "Гавот"
PERFORMER "Борис Михеев"
INDEX 01 00:00:00
FILE "05 - Концертино.wav" WAVE
TRACK 05 AUDIO
TITLE "Концертино"
PERFORMER "Борис Михеев"
INDEX 01 00:00:00
FILE "06 - Песня.wav" WAVE
TRACK 06 AUDIO
TITLE "Песня"
PERFORMER "Борис Михеев"
INDEX 01 00:00:00
FILE "07 - Концертная фантазия на темы русских песен.wav" WAVE
TRACK 07 AUDIO
TITLE "Концертная фантазия на темы русских песен"
PERFORMER "Борис Михеев"
INDEX 01 00:00:00
FILE "08 - Концерт для домры с оркестром.wav" WAVE
TRACK 08 AUDIO
TITLE "Концерт для домры с оркестром"
PERFORMER "Борис Михеев"
INDEX 01 00:00:00

Лог проверки качества

[pre]AUDIOCHECKER v2.0 beta (build 457) - by Dester - opdester@freemail.hu
~~~~~~~~~~~~~~~~~~~~~~~~~~~~~~~~~~
Начато: среда, 26. 03. 2014. - 11:19.11
Найдено файлов: 8
1 -===- F:\Б.Михеев и ансамбль ''Россия''\01 - Элегия.flac
Извлечение успешно выполнено
Заключение: этот трек - MPEG с вероятностью 97%
Временный файл удалён.
2 -===- F:\Б.Михеев и ансамбль ''Россия''\02 - Жаворонок.flac
Извлечение успешно выполнено
Заключение: этот трек - MPEG с вероятностью 93%
Временный файл удалён.
3 -===- F:\Б.Михеев и ансамбль ''Россия''\03 - Две концертные пьесы для домры с оркестром.flac
Извлечение успешно выполнено
Заключение: этот трек - MPEG с вероятностью 95%
Временный файл удалён.
4 -===- F:\Б.Михеев и ансамбль ''Россия''\04 - Гавот.flac
Извлечение успешно выполнено
Заключение: этот трек - MPEG с вероятностью 91%
Временный файл удалён.
5 -===- F:\Б.Михеев и ансамбль ''Россия''\05 - Концертино.flac
Извлечение успешно выполнено
Заключение: этот трек - MPEG с вероятностью 97%
Временный файл удалён.
6 -===- F:\Б.Михеев и ансамбль ''Россия''\06 - Песня.flac
Извлечение успешно выполнено
Заключение: этот трек - MPEG с вероятностью 90%
Временный файл удалён.
7 -===- F:\Б.Михеев и ансамбль ''Россия''\07 - Концертная фантазия на темы русских песен.flac
Извлечение успешно выполнено
Заключение: этот трек - MPEG с вероятностью 100%
Временный файл удалён.
8 -===- F:\Б.Михеев и ансамбль ''Россия''\08 - Концерт для домры с оркестром.flac
Извлечение успешно выполнено
Заключение: этот трек - CDDA с вероятностью 100%
Временный файл удалён.
Завершено: среда, 26. 03. 2014. - 11:23.15 (Время операции: 0:04.04)
Доп. информация: Борис Михеев - педагог по классу четырехструнная домра в харьковской консерватории.
[teatrix.ru].t16258.torrent 
Торрент: Зарегистрирован [ 2016-03-15 12:02 ] · 074358256957ED480986B629C45BE48658850C5E

Скачать .torrent

Скачать

27 KB

Статус: проверено
Скачан: 0 раз
Размер: 319 MB
terms.php



Быстрый ответ

Имя:

      
Для отправки сообщений необходимо включить JavaScript
Показать сообщения:    

Текущее время: 06-Дек 20:59

Часовой пояс: UTC + 3


Вы можете начинать темы
Вы можете отвечать на сообщения
Вы не можете редактировать свои сообщения
Вы не можете удалять свои сообщения
Вы не можете голосовать в опросах
Вы не можете прикреплять файлы к сообщениям
Вы можете скачивать файлы