(Classical Crossover, Neo Classical) Julius Dobos - Mountain Flying - 1999, FLAC (image+.cue) lossless


 

[Цитировать]

Julius Dobos / Mountain Flying
Жанр: Classical Crossover, Neo Classical
Страна-производитель диска: Hungary
Год издания диска: 1999
Издатель (лейбл): Periferic Records
Номер по каталогу: BGCD 051
Аудиокодек: FLAC
Тип рипа: image+.cue
Битрейт аудио: lossless
Продолжительность: 65:16
Источник: собственный рип
Наличие сканов в содержимом раздачи: да
Треклист:
1. Overture (9:02)
2. Mountain Flying I. (8:29)
3. Woodland (8:40)
4. Mountain Flying II. (5:09)
5. Adventure (4:05)
6. Mountain Flying III. (3:34)
7. Oriental Voyage (4:32)
8. New Pangea (9:26)
9. The Last Millenium (3:38)
10. Life (8:37)
Julius Dobos: piano, keyboards, programming
Arnold Antoni: guitars
Barna Gábos: bamboo flutes
Judit Andrejszki: vocals
Márta Sebestyén: traditional Hungarian vocals
Orsolya Winkler: violin
McMullan Patrick: words
Péter Pejtsik: cello, orchestrations
Symphonic Orchestra, Miskolc
Budapest Monteverdi Choir

Лог создания рипа

Exact Audio Copy V1.0 beta 3 from 29. August 2011
Отчёт EAC об извлечении, выполненном 13. мая 2012, 12:23
Julius Dobos / Mountain Flying
Дисковод: Optiarc DVD RW AD-7530B Adapter: 1 ID: 0
Режим чтения : Достоверность
Использование точного потока : Да
Отключение кэша аудио : Да
Использование указателей C2 : Нет
Коррекция смещения при чтении : 6
Способность читать области Lead-in и Lead-out : Нет
Заполнение пропущенных сэмплов тишиной : Да
Удаление блоков с тишиной в начале и конце : Нет
При вычислениях CRC использовались нулевые сэмплы : Да
Интерфейс : Установленный внешний ASPI-интерфейс
Выходной формат : Пользовательский кодировщик
Выбранный битрейт : 896 kBit/s
Качество : Высокий
Добавление ID3-тега : Нет
Утилита сжатия : C:\Program Files\Exact Audio Copy\Flac\flac.exe
Дополнительные параметры : -V -8 -T "Date=%year%" -T "Genre=%genre%" %source%
TOC извлечённого CD
Трек | Старт | Длительность | Начальный сектор | Конечный сектор
---------------------------------------------------------------------
1 | 0:00.00 | 9:02.00 | 0 | 40649
2 | 9:02.00 | 8:29.07 | 40650 | 78831
3 | 17:31.07 | 8:40.08 | 78832 | 117839
4 | 26:11.15 | 5:09.37 | 117840 | 141051
5 | 31:20.52 | 4:05.00 | 141052 | 159426
6 | 35:25.52 | 3:34.68 | 159427 | 175544
7 | 39:00.45 | 4:32.45 | 175545 | 195989
8 | 43:33.15 | 9:26.67 | 195990 | 238506
9 | 53:00.07 | 3:38.00 | 238507 | 254856
10 | 56:38.07 | 8:37.68 | 254857 | 293699
Характеристики диапазона извлечения и сообщения об ошибках
Выбранный диапазон
Имя файла F:\Новая папка (26)\Julius Dobos - Mountain Flying (1999)\Julius Dobos - Mountain Flying.wav
Пиковый уровень 100.0 %
Скорость извлечения 5.3 X
Качество диапазона 99.9 %
CRC теста DE118E30
CRC копии DE118E30
Копирование... OK
Ошибок не произошло
AccurateRip: сводка
Трек 1 отсутствует в базе данных
Трек 2 отсутствует в базе данных
Трек 3 отсутствует в базе данных
Трек 4 отсутствует в базе данных
Трек 5 отсутствует в базе данных
Трек 6 отсутствует в базе данных
Трек 7 отсутствует в базе данных
Трек 8 отсутствует в базе данных
Трек 9 отсутствует в базе данных
Трек 10 отсутствует в базе данных
Ни одного трека нет в базе AccurateRip
Конец отчёта
==== Контрольная сумма отчёта 5947FEB1C3C7F710C8D17B7F52043744115A1011C074D44F1EFD05D41AEE0AF7 ====

Содержание индексной карты (.CUE)

REM GENRE ezoterikus
REM DATE 1999
REM DISCID 750F4C0A
REM COMMENT ExactAudioCopy v1.0b3
CATALOG 0000000000000
PERFORMER "Julius Dobos"
TITLE "Mountain Flying"
FILE "Julius Dobos - Mountain Flying.flac" WAVE
TRACK 01 AUDIO
TITLE "Overture"
ISRC 000000000000
INDEX 01 00:00:00
TRACK 02 AUDIO
TITLE "Mountain Flying 1."
ISRC 000000000000
INDEX 01 09:02:00
TRACK 03 AUDIO
TITLE "Woodland"
ISRC 000000000000
INDEX 01 17:31:07
TRACK 04 AUDIO
TITLE "Mountain Flying 2."
ISRC 000000000000
INDEX 01 26:11:15
TRACK 05 AUDIO
TITLE "Adventure"
ISRC 000000000000
INDEX 01 31:20:52
TRACK 06 AUDIO
TITLE "Mountain Flying 3."
ISRC 000000000000
INDEX 01 35:25:52
TRACK 07 AUDIO
TITLE "Oriental Voyage"
ISRC 000000000000
INDEX 01 39:00:45
TRACK 08 AUDIO
TITLE "New Pangea"
ISRC 000000000000
INDEX 01 43:33:15
TRACK 09 AUDIO
TITLE "The Last Millenium"
ISRC 000000000000
INDEX 01 53:00:07
TRACK 10 AUDIO
TITLE "Life"
ISRC 000000000000
INDEX 01 56:38:07

Об исполнителе (группе)


http://en.wikipedia.org/wiki/Julius_Dobos



Показать сообщения:    

Текущее время: 10-Дек 06:00

Часовой пояс: UTC + 3


Вы не можете начинать темы
Вы не можете отвечать на сообщения
Вы не можете редактировать свои сообщения
Вы не можете удалять свои сообщения
Вы не можете голосовать в опросах
Вы не можете прикреплять файлы к сообщениям
Вы не можете скачивать файлы