(Classical Crossover) Faure Quartett - Popsongs - 2009, APE (image+.cue) lossless


 

[Цитировать]

Fauré Quartett / Popsongs
Жанр: Classical Crossover
Страна-производитель диска: Germany
Год издания диска: 2009
Издатель (лейбл): Deutsche Grammophon
Номер по каталогу: 476 361-0
Страна: Germany
Аудиокодек: APE
Тип рипа: image+.cue
Битрейт аудио: lossless
Продолжительность: 00:53:22
Источник: скачано с avaxhome
Наличие сканов в содержимом раздачи: нет
Треклист:
01 Between The Bars (Elliot Smith)
02 And You Tell Me (A-HA)
03 Gatekeeper (Feist)
04 Wonderful Place (N.E.R.D.)
05 Here Comes The Flood (Peter Gabriel)
06 Dreaming Of The Queen (Pet Shop Boys)
07 River Loves The Ocean (Polarkreis 18)
08 Charlie Freak (Steely Dan)
09 Our Prayer (Beach Boys)
10 Chop Suey! (System Of A Down)
11 Andromeda Heights (Prefab Sprout)
12 Don't Change Your Plans (Ben Folds Five)
13 Amy (Ryan Adams)
14 Our Mutual Friend (The Divine Comedy)
15 Satisfied (John Cale)
Fauré Quartett:
Erika Geldsetzer - violin
Sascha Frombling - viola
Konstantin Heidrich - cello
Dirk Mommertz - piano

Лог создания рипа

Exact Audio Copy V1.0 beta 2 from 29. April 2011
EAC extraction logfile from 7. May 2012, 19:01
Faure Quartett / Popsongs
Used drive : PIONEER BD-RW BDR-206 Adapter: 2 ID: 3
Read mode : Secure
Utilize accurate stream : Yes
Defeat audio cache : Yes
Make use of C2 pointers : No
Read offset correction : 667
Overread into Lead-In and Lead-Out : No
Fill up missing offset samples with silence : Yes
Delete leading and trailing silent blocks : No
Null samples used in CRC calculations : Yes
Used interface : Native Win32 interface for Win NT & 2000
Used output format : User Defined Encoder
Selected bitrate : 896 kBit/s
Quality : High
Add ID3 tag : No
Command line compressor : C:\Program Files\FLAC\flac.exe
Additional command line options : -5 -T "Artist=%artist%" -T "Title=%title%" -T "Album=%albumtitle%" -T "Date=%year%" -T "Tracknumber=%tracknr%" -T "Genre=%genre%" %source% -o %dest%
TOC of the extracted CD
Track | Start | Length | Start sector | End sector
---------------------------------------------------------
1 | 0:00.00 | 3:20.64 | 0 | 15063
2 | 3:20.64 | 2:34.57 | 15064 | 26670
3 | 5:55.46 | 2:14.69 | 26671 | 36789
4 | 8:10.40 | 3:37.64 | 36790 | 53128
5 | 11:48.29 | 5:15.69 | 53129 | 76822
6 | 17:04.23 | 3:47.60 | 76823 | 93907
7 | 20:52.08 | 4:49.47 | 93908 | 115629
8 | 25:41.55 | 2:59.22 | 115630 | 129076
9 | 28:41.02 | 1:38.06 | 129077 | 136432
10 | 30:19.08 | 3:28.08 | 136433 | 152040
11 | 33:47.16 | 3:44.62 | 152041 | 168902
12 | 37:32.03 | 4:22.04 | 168903 | 188556
13 | 41:54.07 | 3:43.72 | 188557 | 205353
14 | 45:38.04 | 4:19.71 | 205354 | 224849
15 | 49:58.00 | 3:24.73 | 224850 | 240222
Range status and errors
Selected range
Filename I:\=== VINYL RIPS ===\=== EAC===\X FRESH RIP\Faure Quartett - Popsongs.wav
Peak level 100.0 %
Extraction speed 7.4 X
Range quality 100.0 %
Test CRC 1175C960
Copy CRC 1175C960
Copy OK
No errors occurred
AccurateRip summary
Track 1 accurately ripped (confidence 5) [F5DDC7B0] (AR v1)
Track 2 accurately ripped (confidence 5) [E941C5A4] (AR v1)
Track 3 accurately ripped (confidence 5) [63F17751] (AR v1)
Track 4 accurately ripped (confidence 5) [2AB73E67] (AR v1)
Track 5 accurately ripped (confidence 5) [B8453C03] (AR v1)
Track 6 accurately ripped (confidence 5) [D3C6EBD1] (AR v1)
Track 7 accurately ripped (confidence 5) [B6095056] (AR v1)
Track 8 accurately ripped (confidence 5) [20D43EDE] (AR v1)
Track 9 accurately ripped (confidence 5) [3173876E] (AR v1)
Track 10 accurately ripped (confidence 5) [D4FE2D3F] (AR v1)
Track 11 accurately ripped (confidence 5) [9EE67343] (AR v1)
Track 12 accurately ripped (confidence 5) [504D7A40] (AR v1)
Track 13 accurately ripped (confidence 5) [B205A053] (AR v1)
Track 14 accurately ripped (confidence 5) [8CFE24D7] (AR v1)
Track 15 accurately ripped (confidence 5) [7ABDA3AE] (AR v1)
All tracks accurately ripped
End of status report
==== Log checksum B1B3BFDC2D1DF0EEADC22ED25375E40EF1A0B29C244DDA5B3A2D7A8C8C6E22E3 ====

Лог проверки качества

AUDIOCHECKER v2.0 beta (build 457) - by Dester - opdester@freemail.hu
~~~~~~~~~~~~~~~~~~~~~~~~~~~~~~~~~~
-=== DO NOT EDIT THIS FILE! ===-
Path: ...\Faure Quartett - Popsongs {Germany 2009}
1 -=- Faure Quartett - Popsongs.wav -=- CDDA (100%)
105560052

Сканы




Показать сообщения:    

Текущее время: 09-Дек 10:50

Часовой пояс: UTC + 3


Вы не можете начинать темы
Вы не можете отвечать на сообщения
Вы не можете редактировать свои сообщения
Вы не можете удалять свои сообщения
Вы не можете голосовать в опросах
Вы не можете прикреплять файлы к сообщениям
Вы не можете скачивать файлы