(Alternative, String tribute) Vitamin String Quartet, The Section - Third Eye Open: The String Tribute To Tool - 2001, FLAC (tracks+.cue) lossless


 

[Цитировать]

Vitamin String Quartet, The Section / Third Eye Open: The String Tribute To Tool
Жанр: Alternative, String tribute
Страна-производитель диска: США
Год издания диска: 2001
Страна: США
Аудиокодек: FLAC
Тип рипа: tracks+.cue
Битрейт аудио: lossless
Продолжительность: 52:33
Источник: what.cd (Superpiccolo)
Наличие сканов в содержимом раздачи: нет
Треклист:
1. The Section - Sober (Tool Cover) (5:06)
2. The Section - Intolerance (Tool Cover) (5:03)
3. The Section - The Grudge (Tool Cover) (6:07)
4. The Section - The Patient (Tool Cover) (5:20)
5. The Section - Opiate (Tool Cover) (3:43)
6. The Section - Hush (Tool Cover) (2:51)
7. The Section - Schism (Tool Cover) (5:26)
8. The Section - Ticks And Leeches (Tool Cover) (4:49)
9. The Section - Ænema (Tool Cover) (6:19)
10. The Section - Pushit (Tool Cover) (7:49)

Лог создания рипа

EAC extraction logfile from 13. April 2008, 18:06 for CD
The Section / Third Eye Open - The String Tribute To Tool
Used drive : SONY DVD RW DW-Q120A Adapter: 0 ID: 1
Read mode : Secure with NO C2, accurate stream, disable cache
Read offset correction : 6
Overread into Lead-In and Lead-Out : No
Used output format : C:\Program Files (x86)\Exact Audio Copy\flac.exe (User Defined Encoder)
192 kBit/s
Additional command line options : -8 -A tukey(0.25) -A gauss(0.1875) -b 4096 -V -T "artist=%a" -T "title=%t" -T "album=%g" -T "date=%y" -T "tracknumber=%n" -T "genre=%m" %s --sector-align
Other options :
Fill up missing offset samples with silence : Yes
Delete leading and trailing silent blocks : No
Native Win32 interface for Win NT & 2000
Track 1
Filename E:\My Downloads\Third Eye Open - The String Tribute To Tool\01 - The Section - Sober (Tool Cover).wav
Pre-gap length 0:00:02.00
Peak level 99.7 %
Track quality 100.0 %
Test CRC 49380E59
Copy CRC 49380E59
Copy OK
Track 2
Filename E:\My Downloads\Third Eye Open - The String Tribute To Tool\02 - The Section - Intolerance (Tool Cover).wav
Pre-gap length 0:00:01.76
Peak level 99.7 %
Track quality 100.0 %
Test CRC 1FFDD61F
Copy CRC 1FFDD61F
Copy OK
Track 3
Filename E:\My Downloads\Third Eye Open - The String Tribute To Tool\03 - The Section - The Grudge (Tool Cover).wav
Pre-gap length 0:00:01.76
Peak level 87.9 %
Track quality 100.0 %
Test CRC 9D0F5B21
Copy CRC 9D0F5B21
Copy OK
Track 4
Filename E:\My Downloads\Third Eye Open - The String Tribute To Tool\04 - The Section - The Patient (Tool Cover).wav
Pre-gap length 0:00:01.21
Peak level 86.2 %
Track quality 100.0 %
Test CRC 693E046D
Copy CRC 693E046D
Copy OK
Track 5
Filename E:\My Downloads\Third Eye Open - The String Tribute To Tool\05 - The Section - Opiate (Tool Cover).wav
Pre-gap length 0:00:01.76
Peak level 87.9 %
Track quality 100.0 %
Test CRC 3415C319
Copy CRC 3415C319
Copy OK
Track 6
Filename E:\My Downloads\Third Eye Open - The String Tribute To Tool\06 - The Section - Hush (Tool Cover).wav
Pre-gap length 0:00:01.76
Peak level 99.7 %
Track quality 100.0 %
Test CRC 2A0C9E18
Copy CRC 2A0C9E18
Copy OK
Track 7
Filename E:\My Downloads\Third Eye Open - The String Tribute To Tool\07 - The Section - Schism (Tool Cover).wav
Pre-gap length 0:00:01.76
Peak level 81.6 %
Track quality 100.0 %
Test CRC EA93A5CC
Copy CRC EA93A5CC
Copy OK
Track 8
Filename E:\My Downloads\Third Eye Open - The String Tribute To Tool\08 - The Section - Ticks And Leeches (Tool Cover).wav
Pre-gap length 0:00:01.76
Peak level 81.9 %
Track quality 100.0 %
Test CRC A1779C66
Copy CRC A1779C66
Copy OK
Track 9
Filename E:\My Downloads\Third Eye Open - The String Tribute To Tool\09 - The Section - Жnema (Tool Cover).wav
Pre-gap length 0:00:01.76
Peak level 99.7 %
Track quality 100.0 %
Test CRC 0CA6FBB6
Copy CRC 0CA6FBB6
Copy OK
Track 10
Filename E:\My Downloads\Third Eye Open - The String Tribute To Tool\10 - The Section - Pushit (Tool Cover).wav
Pre-gap length 0:00:01.76
Peak level 99.7 %
Track quality 100.0 %
Test CRC 7071AA3E
Copy CRC 7071AA3E
Copy OK
No errors occured
End of status report

Содержание индексной карты (.CUE)

PERFORMER "The Section"
TITLE "Third Eye Open - The String Tribute To Tool"
FILE "01 - The Section - Sober (Tool Cover).wav" WAVE
TRACK 01 AUDIO
TITLE "Sober (Tool Cover)"
PERFORMER "The Section"
INDEX 01 00:00:00
TRACK 02 AUDIO
TITLE "Intolerance (Tool Cover)"
PERFORMER "The Section"
INDEX 00 05:05:13
FILE "02 - The Section - Intolerance (Tool Cover).wav" WAVE
INDEX 01 00:00:00
TRACK 03 AUDIO
TITLE "The Grudge (Tool Cover)"
PERFORMER "The Section"
INDEX 00 05:01:44
FILE "03 - The Section - The Grudge (Tool Cover).wav" WAVE
INDEX 01 00:00:00
TRACK 04 AUDIO
TITLE "The Patient (Tool Cover)"
PERFORMER "The Section"
INDEX 00 06:05:68
FILE "04 - The Section - The Patient (Tool Cover).wav" WAVE
INDEX 01 00:00:00
TRACK 05 AUDIO
TITLE "Opiate (Tool Cover)"
PERFORMER "The Section"
INDEX 00 05:18:32
FILE "05 - The Section - Opiate (Tool Cover).wav" WAVE
INDEX 01 00:00:00
TRACK 06 AUDIO
TITLE "Hush (Tool Cover)"
PERFORMER "The Section"
INDEX 00 03:41:40
FILE "06 - The Section - Hush (Tool Cover).wav" WAVE
INDEX 01 00:00:00
TRACK 07 AUDIO
TITLE "Schism (Tool Cover)"
PERFORMER "The Section"
INDEX 00 02:49:55
FILE "07 - The Section - Schism (Tool Cover).wav" WAVE
INDEX 01 00:00:00
TRACK 08 AUDIO
TITLE "Ticks And Leeches (Tool Cover)"
PERFORMER "The Section"
INDEX 00 05:25:02
FILE "08 - The Section - Ticks And Leeches (Tool Cover).wav" WAVE
INDEX 01 00:00:00
TRACK 09 AUDIO
TITLE "Жnema (Tool Cover)"
PERFORMER "The Section"
INDEX 00 04:47:55
FILE "09 - The Section - Жnema (Tool Cover).wav" WAVE
INDEX 01 00:00:00
TRACK 10 AUDIO
TITLE "Pushit (Tool Cover)"
PERFORMER "The Section"
INDEX 00 06:18:14
FILE "10 - The Section - Pushit (Tool Cover).wav" WAVE
INDEX 01 00:00:00



Показать сообщения:    

Текущее время: 09-Дек 08:50

Часовой пояс: UTC + 3


Вы не можете начинать темы
Вы не можете отвечать на сообщения
Вы не можете редактировать свои сообщения
Вы не можете удалять свои сообщения
Вы не можете голосовать в опросах
Вы не можете прикреплять файлы к сообщениям
Вы не можете скачивать файлы