(Instrumental) [391/44100] Тамара Вольская - домра: Wieniawski, Saint-Saеns, Sarasate, Чайковский, Кичанов, Пузей, Щедрин. - 1980, FLAC (tracks+.cue)


Статистика раздачи [Обновить пиров]
Размер:  122 MB   |    Зарегистрирован:  8 месяцев 26 дней   |    Скачан:  0 раз

Полного источника не было: Никогда

 
   
 
 
 

[Цитировать]

Тамара Вольская - домра: Wieniawski, Saint-Saеns, Sarasate, Чайковский, Кичанов, Пузей, Щедрин.
Жанр: Instrumental
Год выпуска: 1980
Страна-производитель: Россия
Аудио кодек: FLAC
Тип рипа: tracks+.cue
Формат записи: 391/44100
Формат раздачи: 391/44100
Продолжительность: 00:43:20
Треклист:
01 Г. Венявский. Полонез Ля мажор - 8:36
02 К. Сен-Санс. Интродукция и рондо каприччиозо - 8:38
03 П. Сарасате. Интродукция и тарантелла - 5:01
04 П. Чайковский. Русский танец - 4:05
05 Е. Кичанов. Уральский девичий хоровод - 3:54
06 Н. Пузей. Соната для домры и фортепиано - 6:43
07 Р. Щедрин – Д. Цыганков. В подражание Альбенису - 3:07
08 Русская народна песня. Травушка-муравушка - 3:16
Источник оцифровки: третьим лицом

Лог создания рипа

Exact Audio Copy V1.0 beta 3 from 29. August 2011
Отчёт EAC об извлечении, выполненном 2. мая 2013, 20:02
Тамара Вольская / Тамара Вольская
Дисковод: HL-DT-STDVDRAM GH24NS95 Adapter: 2 ID: 0
Режим чтения : Достоверность
Использование точного потока : Да
Отключение кэша аудио : Да
Использование указателей C2 : Нет
Коррекция смещения при чтении : 6
Способность читать области Lead-in и Lead-out : Нет
Заполнение пропущенных сэмплов тишиной : Да
Удаление блоков с тишиной в начале и конце : Нет
При вычислениях CRC использовались нулевые сэмплы : Да
Интерфейс : Встроенный Win32-интерфейс для Win NT/2000
Обработка зазоров : Добавлено к предыдущему треку
Выходной формат : Пользовательский кодировщик
Выбранный битрейт : 192 kBit/s
Качество : Высокий
Добавление ID3-тега : Нет
Утилита сжатия : C:\Program Files\Exact Audio Copy\Flac\flac.exe
Дополнительные параметры : -V -8 -T "Genre=%genre%" -T "Title=%title%" -T "Artist=%artist%" -T "Composer=%composer%" -T "Album=%albumtitle%" -T "Date=%year%" -T "Tracknumber=%tracknr%" -T "Comment=%comment%" %source%
TOC извлечённого CD
Трек | Старт | Длительность | Начальный сектор | Конечный сектор
---------------------------------------------------------------------
1 | 0:00.00 | 8:36.18 | 0 | 38717
2 | 8:36.18 | 8:38.09 | 38718 | 77576
3 | 17:14.27 | 5:01.19 | 77577 | 100170
4 | 22:15.46 | 4:05.05 | 100171 | 118550
5 | 26:20.51 | 3:53.27 | 118551 | 136052
6 | 30:14.03 | 6:43.53 | 136053 | 166330
7 | 36:57.56 | 3:06.41 | 166331 | 180321
8 | 40:04.22 | 3:16.40 | 180322 | 195061
Трек 1
Имя файла D:\Музыка\Потрековый рип домровой музыки и др\Тамара Вольская\01 - Полонез Ля мажор.wav
Длина предзазора 0:00:02.00
Пиковый уровень 100.0 %
Скорость извлечения 5.2 X
Качество трека 99.9 %
CRC теста ABBD07F7
CRC копии ABBD07F7
Копирование... OK
Трек 2
Имя файла D:\Музыка\Потрековый рип домровой музыки и др\Тамара Вольская\02 - Интродукция и рондо каприччиозо.wav
Длина предзазора 0:00:02.00
Пиковый уровень 100.0 %
Скорость извлечения 6.5 X
Качество трека 100.0 %
CRC теста 75F90510
CRC копии 75F90510
Копирование... OK
Трек 3
Имя файла D:\Музыка\Потрековый рип домровой музыки и др\Тамара Вольская\03 - Интродукция и тарантелла.wav
Длина предзазора 0:00:02.00
Пиковый уровень 100.0 %
Скорость извлечения 1.6 X
Качество трека 100.0 %
CRC теста 80381303
CRC копии 80381303
Копирование... OK
Трек 4
Имя файла D:\Музыка\Потрековый рип домровой музыки и др\Тамара Вольская\04 - Русский танец.wav
Длина предзазора 0:00:02.00
Пиковый уровень 100.0 %
Скорость извлечения 1.7 X
Качество трека 100.0 %
CRC теста 86887CF3
CRC копии 86887CF3
Копирование... OK
Трек 5
Имя файла D:\Музыка\Потрековый рип домровой музыки и др\Тамара Вольская\05 - Уральский девичий хоровод.wav
Длина предзазора 0:00:02.00
Пиковый уровень 77.8 %
Скорость извлечения 1.5 X
Качество трека 99.9 %
CRC теста E6F1D052
CRC копии E6F1D052
Копирование... OK
Трек 6
Имя файла D:\Музыка\Потрековый рип домровой музыки и др\Тамара Вольская\06 - Соната для домры и фортепиано.wav
Длина предзазора 0:00:02.00
Пиковый уровень 74.3 %
Скорость извлечения 1.8 X
Качество трека 99.9 %
CRC теста 7C5DD134
CRC копии 7C5DD134
Копирование... OK
Трек 7
Имя файла D:\Музыка\Потрековый рип домровой музыки и др\Тамара Вольская\07 - В подражание Альбенису.wav
Длина предзазора 0:00:02.00
Пиковый уровень 54.8 %
Скорость извлечения 1.6 X
Качество трека 99.9 %
CRC теста F652308E
CRC копии F652308E
Копирование... OK
Трек 8
Имя файла D:\Музыка\Потрековый рип домровой музыки и др\Тамара Вольская\08 - Травушка-муравушка.wav
Длина предзазора 0:00:02.00
Пиковый уровень 80.0 %
Скорость извлечения 1.7 X
Качество трека 99.9 %
CRC теста 90C6E5A9
CRC копии 90C6E5A9
Копирование... OK
Ошибок не произошло
Конец отчёта
==== Контрольная сумма отчёта ECA987713F10CC88C0EA7A6582EDA0E9C322C5EAED9711AF1E38E2CB53000BEA ====

Содержание индексной карты (.CUE)

REM GENRE Classical
REM DATE 1980
REM DISCID 620A2808
REM COMMENT "ExactAudioCopy v1.0b3"
PERFORMER "Тамара Вольская"
TITLE "Тамара Вольская"
FILE "01 - Полонез Ля мажор.wav" WAVE
TRACK 01 AUDIO
TITLE "Полонез Ля мажор"
PERFORMER "Тамара Вольская"
FLAGS DCP
INDEX 01 00:00:00
TRACK 02 AUDIO
TITLE "Интродукция и рондо каприччиозо"
PERFORMER "Тамара Вольская"
FLAGS DCP
INDEX 00 08:34:18
FILE "02 - Интродукция и рондо каприччиозо.wav" WAVE
INDEX 01 00:00:00
TRACK 03 AUDIO
TITLE "Интродукция и тарантелла"
PERFORMER "Тамара Вольская"
FLAGS DCP
INDEX 00 08:36:09
FILE "03 - Интродукция и тарантелла.wav" WAVE
INDEX 01 00:00:00
TRACK 04 AUDIO
TITLE "Русский танец"
PERFORMER "Тамара Вольская"
FLAGS DCP
INDEX 00 04:59:19
FILE "04 - Русский танец.wav" WAVE
INDEX 01 00:00:00
TRACK 05 AUDIO
TITLE "Уральский девичий хоровод"
PERFORMER "Тамара Вольская"
FLAGS DCP
INDEX 00 04:03:05
FILE "05 - Уральский девичий хоровод.wav" WAVE
INDEX 01 00:00:00
TRACK 06 AUDIO
TITLE "Соната для домры и фортепиано"
PERFORMER "Тамара Вольская"
FLAGS DCP
INDEX 00 03:51:27
FILE "06 - Соната для домры и фортепиано.wav" WAVE
INDEX 01 00:00:00
TRACK 07 AUDIO
TITLE "В подражание Альбенису"
PERFORMER "Тамара Вольская"
FLAGS DCP
INDEX 00 06:41:53
FILE "07 - В подражание Альбенису.wav" WAVE
INDEX 01 00:00:00
TRACK 08 AUDIO
TITLE "Травушка-муравушка"
PERFORMER "Тамара Вольская"
FLAGS DCP
INDEX 00 03:04:41
FILE "08 - Травушка-муравушка.wav" WAVE
INDEX 01 00:00:00

Лог проверки качества

AUDIOCHECKER v2.0 beta (build 457) - by Dester - opdester@freemail.hu
~~~~~~~~~~~~~~~~~~~~~~~~~~~~~~~~~~
Начато: среда, 26. 03. 2014. - 12:24.43
Найдено файлов: 8
1 -===- F:\Тамара Вольская\01 - Полонез Ля мажор.flac
Извлечение успешно выполнено
Заключение: этот трек - MPEG с вероятностью 93%
Временный файл удалён.
2 -===- F:\Тамара Вольская\02 - Интродукция и рондо каприччиозо.flac
Извлечение успешно выполнено
Заключение: этот трек - MPEG с вероятностью 89%
Временный файл удалён.
3 -===- F:\Тамара Вольская\03 - Интродукция и тарантелла.flac
Извлечение успешно выполнено
Заключение: не удалось определить источник этого трека
Временный файл удалён.
4 -===- F:\Тамара Вольская\04 - Русский танец.flac
Извлечение успешно выполнено
Заключение: этот трек - MPEG с вероятностью 89%
Временный файл удалён.
5 -===- F:\Тамара Вольская\05 - Уральский девичий хоровод.flac
Извлечение успешно выполнено
Заключение: этот трек - CDDA с вероятностью 85%
Временный файл удалён.
6 -===- F:\Тамара Вольская\06 - Соната для домры и фортепиано.flac
Извлечение успешно выполнено
Заключение: этот трек - CDDA с вероятностью 58%
Временный файл удалён.
7 -===- F:\Тамара Вольская\07 - В подражание Альбенису.flac
Извлечение успешно выполнено
Заключение: этот трек - CDDA с вероятностью 43%
Временный файл удалён.
8 -===- F:\Тамара Вольская\08 - Травушка-муравушка.flac
Извлечение успешно выполнено
Заключение: этот трек - CDDA с вероятностью 85%
Временный файл удалён.
Завершено: среда, 26. 03. 2014. - 12:27.12 (Время операции: 0:02.28)

Спектр

АЧХ

Уровень записи

Доп. информация: Тут представлена не вся информация, так как рип делала около 8 лет назад. Мне показали что нажимать, чтобы снять запись с пластинки, и как сохранять. Пишу то, что знаю.
[teatrix.ru].t16301.torrent 
Торрент: Зарегистрирован [ 2016-03-15 12:01 ] · 5FD18332B9BF787EDD1E95210AE3A7EDAB5EE353

Скачать .torrent

Скачать

41 KB

Статус: проверено
Скачан: 0 раз
Размер: 122 MB
terms.php



Быстрый ответ

Имя:

      
Для отправки сообщений необходимо включить JavaScript
Показать сообщения:    

Текущее время: 11-Дек 03:16

Часовой пояс: UTC + 3


Вы можете начинать темы
Вы можете отвечать на сообщения
Вы не можете редактировать свои сообщения
Вы не можете удалять свои сообщения
Вы не можете голосовать в опросах
Вы не можете прикреплять файлы к сообщениям
Вы можете скачивать файлы