Цой - "Кино" [2012, Документальный, DVB]


Статистика раздачи [Обновить пиров]
Размер:  1.37 GB   |    Зарегистрирован:  8 месяцев 24 дня   |    Скачан:  0 раз

Полного источника не было: Никогда

 
   
 
 
 

[Цитировать]

Цой - "Кино"- Год выпуска: 2012
Страна: Россия
Жанр: Документальный
Продолжительность: 00:44:08-Описание: Фильм посвящен Виктору Цою, которому 21 июня 2012 года исполнилось бы 50 лет-Релиз от & специально для
Раздача от группы: -Качество: DVB
Формат: MPEG
Видео кодек: MPEG2
Аудио кодек: MPEG1
Видео: MPEG-2; 720x576 (16:9)@1024x576, 25.00fps, ~4100 Kbps
Аудио: MPEG Audio Layer 2, 48000Hz stereo, ~192kbps avg

MI

Общее
Полное имя Цой - Кино__DVB by volk & UAOnline.mpg
Формат : MPEG-PS
Размер файла : 1,37 Гбайт
Продолжительность : 44 м.
Режим общего битрейта : Переменный
Общий поток : 4437 Кбит/сек
Видео
Идентификатор : 224 (0xE0)
Формат : MPEG Video
Версия формата : Version 2
Профиль формата : Main@Main
Параметр BVOP формата : Да
Параметр матрицы формата : Выборочная
Продолжительность : 44 м.
Вид битрейта : Переменный
Битрейт : 4156 Кбит/сек
Максимальный битрейт : 6000 Кбит/сек
Ширина : 720 пикселей
Высота : 576 пикселей
Соотношение сторон : 16:9
Частота кадров : 25,000 кадров/сек
Стандарт вещания : PAL
Цветовое пространство : YUV
Субдискретизация насыщенности : 4:2:0
Битовая глубина : 8 бит
Тип развёртки : Чересстрочная
Порядок развёртки : Верхнее поле первое
Метод сжатия : С потерями
Бит/(Пиксели*Кадры) : 0.401
Размер потока : 1,28 Гбайт (94%)
Аудио
Идентификатор : 192 (0xC0)
Формат : MPEG Audio
Версия формата : Version 1
Профиль формата : Layer 2
Продолжительность : 44 м.
Вид битрейта : Постоянный
Битрейт : 192 Кбит/сек
Каналы : 2 канала
Частота : 48,0 КГц
Метод сжатия : С потерями
Размер потока : 60,6 Мбайт (4%)

Скринлист

Скриншоты

[teatrix.ru].t16312.torrent 
Торрент: Зарегистрирован [ 2016-03-15 12:01 ] · 08216F9FC0EAB4BA401784589D18BC8687248A18

Скачать .torrent

Скачать

14 KB

Статус: проверено
Скачан: 0 раз
Размер: 1.37 GB
terms.php



Быстрый ответ

Имя:

      
Для отправки сообщений необходимо включить JavaScript
Показать сообщения:    

Текущее время: 08-Дек 14:57

Часовой пояс: UTC + 3


Вы можете начинать темы
Вы можете отвечать на сообщения
Вы не можете редактировать свои сообщения
Вы не можете удалять свои сообщения
Вы не можете голосовать в опросах
Вы не можете прикреплять файлы к сообщениям
Вы можете скачивать файлы