Виктор Цой. Вот такое "Кино" (Юлия Рябкова) [2012, Документальный, DVB]


Статистика раздачи [Обновить пиров]
Размер:  1.04 GB   |    Зарегистрирован:  8 месяцев 26 дней   |    Скачан:  0 раз

Полного источника не было: Никогда

 
   
 
 
 

[Цитировать]

Виктор Цой. Вот такое "Кино"
Год выпуска: 2012
Страна: Россия (телеканал "ТВ Центр")
Жанр: Документальный
Продолжительность: 00:39:14
Режиссер: Юлия Рябкова
Автор: Юлия Шипицына
В ролях: Александр Липницкий (основатель группы "Звуки Му"), Сергей Рыженко (скрипач ), Сергей Бугаев (музыкант), Николай Михайлов (президент Ленинградского рок-клуба), Дмитрий Шагин (художник ), Сергей Фирсов (директор музея "Камчатка"), Олег Гаркуша (лидер группы "Аукцион"), Владимир Шахрин (лидер группы "Чайф").
Описание: 21 июня 2012 года Виктору Цою исполнилось бы 50 лет. Но в памяти и сердцах своих поклонников он навсегда остался 28-летним кумиром. Накануне юбилея легенды советского рока телеканал "ТВ Центр" представляет премьеру документального фильма "Виктор Цой. Вот такое "Кино". Виктор Цой жил в эпоху перемен, когда на смену одной реальности приходила другая. И он был одним из творцов нового мира... Его жизнь – набор парадоксов. Мальчик-полукровка, выросший в Ленинграде, рокер, чье имя гремело по всему Союзу, музыкант, ставший героем эпохи – он пел, и ему подпевали миллионы.
Когда в новостях сообщили об автомобильной аварии под Ригой 15 августа 1990 года, многие с удивлением узнали – Виктору Цою было всего 28 лет! А он успел прожить такую большую жизнь в такой маленький отрезок времени... "Цой – фигура, подобная Ангелу," – утверждал Борис Гребенщиков. Наверное, поэтому его фанаты и говорят "Цой жив" – ведь ангелы не умирают.
Зрители увидят уникальные архивные видеоматериалы, на которых запечатлены репетиции, концерты, гастроли и интервью Виктора Цоя различным телеканалам. Мы побываем в тех местах, где рождался талант музыканта, пообщаемся с его коллегами, друзьями и единомышленниками...
Качество: DVB
Формат: MPEG-PS
Видео: MPEG-2, 704x576@768x576 (4/3), 25 fps, ~3539 Mbps (0.349 bit/pixel)
Аудио: MPEG Audio Layer 2, 48.0 KHz, 2 ch, 192 Kbps, CBR

MediaInfo

Общее
Полное имя : C:\Виктор Цой. Вот такое «Кино» (ТВ Центр, 20.06.12) [DVB].mpg
Формат : MPEG-PS
Размер файла : 1,04 Гбайт
Продолжительность : 39 м.
Режим общего битрейта : Переменный
Общий поток : 3807 Кбит/сек
Видео
Идентификатор : 224 (0xE0)
Формат : MPEG Video
Версия формата : Version 2
Профиль формата : Main@Main
Параметр BVOP формата : Да
Параметр матрицы формата : Выборочная
Продолжительность : 39 м.
Вид битрейта : Переменный
Битрейт : 3539 Кбит/сек
Максимальный битрейт : 15,0 Мбит/сек
Ширина : 704 пикселя
Высота : 576 пикселей
Соотношение сторон : 4:3
Частота кадров : 25,000 кадров/сек
Стандарт вещания : PAL
Цветовое пространство : YUV
Субдискретизация насыщенности : 4:2:0
Битовая глубина : 8 бит
Метод сжатия : С потерями
Бит/(Пиксели*Кадры) : 0.349
Размер потока : 994 Мбайт (93%)
Аудио
Идентификатор : 192 (0xC0)
Формат : MPEG Audio
Версия формата : Version 1
Профиль формата : Layer 2
Продолжительность : 39 м.
Вид битрейта : Постоянный
Битрейт : 192 Кбит/сек
Каналы : 2 канала
Частота : 48,0 КГц
Метод сжатия : С потерями
Размер потока : 53,9 Мбайт (5%)
[teatrix.ru].t16314.torrent 
Торрент: Зарегистрирован [ 2016-03-15 12:01 ] · 9CF0AC6F30B2A4B69428ACC50810B4711A5515A4

Скачать .torrent

Скачать

11 KB

Статус: проверено
Скачан: 0 раз
Размер: 1.04 GB
terms.php



Быстрый ответ

Имя:

      
Для отправки сообщений необходимо включить JavaScript
Показать сообщения:    

Текущее время: 11-Дек 11:09

Часовой пояс: UTC + 3


Вы можете начинать темы
Вы можете отвечать на сообщения
Вы не можете редактировать свои сообщения
Вы не можете удалять свои сообщения
Вы не можете голосовать в опросах
Вы не можете прикреплять файлы к сообщениям
Вы можете скачивать файлы