Жизнь и смерть Энди Уорхола / Vie et morts de Andy Warhol / Vies et morts d'Andy Warhol (Жан-Мишель Векшье / Jean-Michel Vecchiet) [2005, документальный, биография, DVB] DVO (Первый канал)


Статистика раздачи [Обновить пиров]
Размер:  1.56 GB   |    Зарегистрирован:  8 месяцев 25 дней   |    Скачан:  1 раз

Полного источника не было: 7 месяцев 9 дней

 
   
 
 
 

[Цитировать]

Жизнь и смерть Энди Уорхола
Vie et morts de Andy Warhol / Vies et morts d'Andy Warhol- Год выпуска: 2005
Страна: Франция
Жанр: документальный, биография
Продолжительность: 01:20:05
Перевод: Профессиональный (двухголосый) (по заказу ЗАО "Первый канал. Всемирная сеть")
Русские субтитры: нет
Режиссер: Жан-Мишель Векшье / Jean-Michel Vecchiet
Описание: В 1928 году родился человек, чье имя стало синонимом поп-арта. Энди Уорхол был не только блестящим художником, дизайнером и кинорежиссером. Превратив искусство в серийное производство, он сумел изменить представление о роли художника в современном мире, совершил настоящий переворот на арт-рынке, а затем и сам превратился в одну из икон массовой культуры.
В фильме принимают участие друзья и коллеги Уорхола: художники Филип Перлстайн, Натан Глюк, Рони Катрон, актер Стефен Брюс, фотографы и режиссеры Джерард Маланга, Билли Нейм, режиссер Йонас Мекас, актер Том Сокольский, актриса и художник Ультра Вайолет, модельер Карл Лагерфельд, актер и режиссер Тейлор Мид, писатель Боб Колачелло, арт-консультант Винсент Фремон, фотограф и художник Кристофер Макос, арт-директор парфюмерии и часов дома "Шанель" Жак Елло, фотограф, коллекционер и писатель Питер Бирд. (анонс канала "Время: Далекое и близкое")
Информация: http://www.imdb.com/title/tt0759748/
Доп. информация: Собственная запись со спутника (канал "Время: Далекое и близкое", пакет НТВ+). Фильм снят на французском и английском языках. Во время английской речи транслит французскими вшитыми субтитрами.
Качество: DVB
Формат: TS
Видео кодек: MPEG2
Аудио кодек: MP2
Видео: MPEG Video 2, 720x576@768x576 (4:3), 25 fps, ~2460 kbps avg
Аудио: 48 kHz, MPEG Audio 2, 2 ch, ~192.00 kbps avg

MediaInfo

Полное имя                               : H:\My Torrents\[apreder]Vie_et_morts_de_Andy_Warhol(2005)DVB.ts
Формат : MPEG-TS
Размер файла : 1,56 Гбайт
Продолжительность : 1 ч. 20 м.
Режим общего битрейта : Переменный
Общий поток : 2792 Кбит/сек
Видео
Идентификатор : 224 (0xE0)
Идентификатор меню : 258 (0x102)
Формат : MPEG Video
Версия формата : Version 2
Профиль формата : Main@Main
Параметр BVOP формата : Да
Параметр матрицы формата : Выборочная
Параметр GOP формата : M=3, N=12
Идентификатор кодека : 2
Продолжительность : 1 ч. 20 м.
Вид битрейта : Переменный
Битрейт : 2460 Кбит/сек
Максимальный битрейт : 4500 Кбит/сек
Ширина : 720 пикселей
Высота : 576 пикселей
Соотношение сторон : 4:3
Частота кадров : 25,000 кадров/сек
Стандарт вещания : PAL
Цветовое пространство : YUV
Субдискретизация насыщенности : 4:2:0
Битовая глубина : 8 бит
Тип развёртки : Чересстрочная
Порядок развёртки : Верхнее поле первое
Метод сжатия : С потерями
Бит/(Пиксели*Кадры) : 0.237
Размер потока : 1,38 Гбайт (88%)
Аудио
Идентификатор : 192 (0xC0)
Идентификатор меню : 258 (0x102)
Формат : MPEG Audio
Версия формата : Version 1
Профиль формата : Layer 2
Идентификатор кодека : 3
Продолжительность : 1 ч. 20 м.
Вид битрейта : Постоянный
Битрейт : 192 Кбит/сек
Каналы : 2 канала
Частота : 48,0 КГц
Метод сжатия : С потерями
Задержка видео : -269 мс.
Размер потока : 110 Мбайт (7%)
Язык : German
Язык, дополнительно : Clean effects

Скриншоты


Скриншоты анаморфированные


-243/225√
[teatrix.ru].t16337.torrent 
Торрент: Зарегистрирован [ 2016-03-15 12:00 ] · F0898951F8350C440704D90CFFA85F7FC23BEDEE

Скачать .torrent

Скачать

16 KB

Статус: проверено
Скачан: 1 раз
Размер: 1.56 GB
terms.php



Быстрый ответ

Имя:

      
Для отправки сообщений необходимо включить JavaScript
Показать сообщения:    

Текущее время: 09-Дек 22:27

Часовой пояс: UTC + 3


Вы можете начинать темы
Вы можете отвечать на сообщения
Вы не можете редактировать свои сообщения
Вы не можете удалять свои сообщения
Вы не можете голосовать в опросах
Вы не можете прикреплять файлы к сообщениям
Вы можете скачивать файлы