Романтические истории Парижа / Любовь в Париже / Paris mes amours / Stars & Love Stories – Paris In Love (Валери Лаваль / Valerie Lavalle / Valérie Lavalle) [2009, документальный, музыкальный, DVB] DVO (Видеофильм)


Статистика раздачи [Обновить пиров]
Размер:  707 MB   |    Зарегистрирован:  8 месяцев 24 дня   |    Скачан:  0 раз

Полного источника не было: Никогда

 
   
 
 
 

[Цитировать]

Романтические истории Парижа / Любовь в Париже
Paris mes amours / Stars & Love Stories – Paris In Love- Год выпуска: 2009
Страна: Франция
Жанр: документальный, музыкальный
Продолжительность: 00:51:29
Перевод: Профессиональный (двухголосый) (компания "Видеофильм" по заказу ООО "Медиапроект")
Русские субтитры: нет
Режиссер: Валери Лаваль / Valérie Lavalle
Описание: Когда мы говорим "песни", подразумеваем - "любовь", когда говорим "любовь", подразумеваем - "песни". Музыка и сильное чувство связаны неразрывно... Самые романтичные и трагичные любовные истории Парижа в обрамлении лирических мелодий:
1. Ален Делон и Роми Шнайдер
2. Эдит Пиаф и Марсель Сердан
3. Арлетти и Ханс Сёринг
4. Джонни Холлидей и Сильви Вартан
5. Жан Маре и Жан Кокто
6. Серж Генсбур и Джейн Биркин
Доп. информация: Собственная запись со спутника (канал "Парк развлечений", пакет НТВ+).
Качество: DVB
Формат: TS
Видео кодек: MPEG2
Аудио кодек: MP2
Видео: MPEG Video 2, 544x576@768x576 (4:3), 25 fps, ~1662 kbps avg
Аудио: 48 kHz, MPEG Audio 2, 2 ch, ~160.00 kbps avg

MediaInfo

Полное имя                               : H:\My Torrents\[apreder]Paris_mes_amours(2009)DVB.ts
Формат : MPEG-TS
Размер файла : 707 Мбайт
Продолжительность : 51 м.
Режим общего битрейта : Переменный
Общий поток : 1918 Кбит/сек
Видео
Идентификатор : 224 (0xE0)
Идентификатор меню : 258 (0x102)
Формат : MPEG Video
Версия формата : Version 2
Профиль формата : Main@Main
Параметр BVOP формата : Да
Параметр матрицы формата : Выборочная
Параметр GOP формата : M=3, N=24
Идентификатор кодека : 2
Продолжительность : 51 м.
Вид битрейта : Переменный
Битрейт : 1662 Кбит/сек
Максимальный битрейт : 5000 Кбит/сек
Ширина : 544 пикселя
Высота : 576 пикселей
Соотношение сторон : 4:3
Частота кадров : 25,000 кадров/сек
Цветовое пространство : YUV
Субдискретизация насыщенности : 4:2:0
Битовая глубина : 8 бит
Тип развёртки : Чересстрочная
Порядок развёртки : Верхнее поле первое
Метод сжатия : С потерями
Бит/(Пиксели*Кадры) : 0.212
Размер потока : 612 Мбайт (87%)
Аудио
Идентификатор : 192 (0xC0)
Идентификатор меню : 258 (0x102)
Формат : MPEG Audio
Версия формата : Version 1
Профиль формата : Layer 2
Идентификатор кодека : 3
Продолжительность : 51 м.
Вид битрейта : Постоянный
Битрейт : 160 Кбит/сек
Каналы : 2 канала
Частота : 48,0 КГц
Метод сжатия : С потерями
Задержка видео : -296 мс.
Размер потока : 58,9 Мбайт (8%)
Язык : German
Язык, дополнительно : Clean effects

Скриншоты


Скриншоты анаморфированные


-249/231√
[teatrix.ru].t16348.torrent 
Торрент: Зарегистрирован [ 2016-03-15 12:00 ] · 508A3C615883344B612B88141E241ACA365961FB

Скачать .torrent

Скачать

14 KB

Статус: проверено
Скачан: 0 раз
Размер: 707 MB
terms.php



Показать сообщения:    

Текущее время: 08-Дек 23:10

Часовой пояс: UTC + 3


Вы не можете начинать темы
Вы не можете отвечать на сообщения
Вы не можете редактировать свои сообщения
Вы не можете удалять свои сообщения
Вы не можете голосовать в опросах
Вы не можете прикреплять файлы к сообщениям
Вы можете скачивать файлы