Joy Division (Грант Джи / Grant Gee) [2007, Документальный, DVDRip] DVO («Кино без границ»)


Статистика раздачи [Обновить пиров]
Размер:  1.58 GB   |    Зарегистрирован:  8 месяцев 24 дня   |    Скачан:  0 раз

Полного источника не было: Никогда

 
   
 
 
 

[Цитировать]

Joy Division (Грант Джи / Grant Gee)"1300 понедельников спустя..." Год выпуска: 2007
Страна: Великобритания
Жанр: Документальный
Продолжительность: 01:35:58
Перевод: Профессиональный (двухголосый)
Русские субтитры: есть
Сценарий: Джон Сэвадж / Jon Savage
Режиссер: Грант Джи / Grant Gee
Оператор: Грант Джи / Grant Gee
Продюсеры: Tom Astor, Tom Atencio, Jacqui Edenbrow, Jade Robledo
Монтаж: Джерри Чэтер / Jerry Chater
Производство: "Brown Owl Films", "Hudson Productions"
Премьера (мир): 7 сентября 2007
Премьера (РФ): 4 февраля 2009 «Кино без границ»
Релиз на DVD: 21 июля 2011 «Новый Диск»
Рейтинг MPAA: Детям до 17 лет обязательно присутствие родителей
Описание: В 1976 году четверо молодых людей из разрушенного постиндустриального Манчестера отправились посмотреть на Sex Pistols. Впечатлившись, они организовали группу Joy Division. Через три года это был вопрос искусства, жизни и смерти. Сегодня, тридцать лет спустя, у Joy Division как никогда, — и поклонников, и влияния, благодаря мощному наследию, которое резко резонирует в сегодняшней предельно карьеристской музыкальной индустрии и искусственно выращиваемой поп-культуре.
Доп. информация:
Релиз группы "Joy Division Club"
Спасибо Деду Морозу за русскую аудиодорожку.

Качество: DVDRip
Формат: MKV
Видео кодек: XviD
Аудио кодек: AC3/MP3
Видео: XviD, 704x384 (1.85:1), 1673 kbps, 23.976 fps
Аудио #1: English, AC-3, 448 kbps, 48 KHz, 6 ch
Аудио #2: Русский, MP3, 192 kbps, 44.1 KHz, 2 ch Памяти Йена Кевина Кёртиса
15.07.1956 - 18.05.1980

MediaInfo

General
Unique ID : 217441126175546767804334398332511591220 (0xA395A33A08ACF48BBDF6F41C30461B34)
Complete name : D:\Joy Division.2007.Grant Gee.mkv
Format : Matroska
Format version : Version 2
File size : 1.58 GiB
Duration : 1h 35mn
Overall bit rate : 2 360 Kbps
Encoded date : UTC 2012-07-13 18:26:30
Writing application : mkvmerge v5.7.0 ('The Whirlwind') built on Jul 8 2012 20:08:51
Writing library : libebml v1.2.3 + libmatroska v1.3.0
Video
ID : 1
Format : MPEG-4 Visual
Format profile : Advanced Simple@L5
Format settings, BVOP : Yes
Format settings, QPel : No
Format settings, GMC : No warppoints
Format settings, Matrix : Default (H.263)
Codec ID : XVID
Codec ID/Hint : XviD
Duration : 1h 35mn
Bit rate : 1 673 Kbps
Width : 704 pixels
Height : 384 pixels
Display aspect ratio : 1.85:1
Frame rate : 23.976 fps
Color space : YUV
Chroma subsampling : 4:2:0
Bit depth : 8 bits
Scan type : Progressive
Compression mode : Lossy
Bits/(Pixel*Frame) : 0.258
Stream size : 1.12 GiB (71%)
Title : Joy Division
Writing library : XviD 1.1.2 (UTC 2006-11-01)
Default : Yes
Forced : Yes
Audio #1
ID : 2
Format : AC-3
Format/Info : Audio Coding 3
Mode extension : CM (complete main)
Format settings, Endianness : Big
Muxing mode : Header stripping
Codec ID : A_AC3
Duration : 1h 35mn
Bit rate mode : Constant
Bit rate : 448 Kbps
Channel(s) : 6 channels
Channel positions : Front: L C R, Side: L R, LFE
Sampling rate : 48.0 KHz
Bit depth : 16 bits
Compression mode : Lossy
Stream size : 308 MiB (19%)
Title : English (5.1)
Language : English
Default : Yes
Forced : No
Audio #2
ID : 4
Format : MPEG Audio
Format version : Version 1
Format profile : Layer 3
Mode : Joint stereo
Mode extension : MS Stereo
Muxing mode : Header stripping
Codec ID : A_MPEG/L3
Codec ID/Hint : MP3
Duration : 1h 35mn
Bit rate mode : Constant
Bit rate : 192 Kbps
Channel(s) : 2 channels
Sampling rate : 44.1 KHz
Compression mode : Lossy
Stream size : 132 MiB (8%)
Title : Русский (2.0)
Writing library : LAME3.97
Language : Russian
Default : No
Forced : No
Text
ID : 3
Format : UTF-8
Codec ID : S_TEXT/UTF8
Codec ID/Info : UTF-8 Plain Text
Title : Русские
Language : Russian
Default : Yes
Forced : No

Скриншоты

[teatrix.ru].t16358.torrent 
Торрент: Зарегистрирован [ 2016-03-15 12:00 ] · A6470566B4146084CB83F5E21EF5B3D77EA01E32

Скачать .torrent

Скачать

16 KB

Статус: проверено
Скачан: 0 раз
Размер: 1.58 GB
terms.php



Быстрый ответ

Имя:

      
Для отправки сообщений необходимо включить JavaScript
Показать сообщения:    

Текущее время: 09-Дек 04:59

Часовой пояс: UTC + 3


Вы можете начинать темы
Вы можете отвечать на сообщения
Вы не можете редактировать свои сообщения
Вы не можете удалять свои сообщения
Вы не можете голосовать в опросах
Вы не можете прикреплять файлы к сообщениям
Вы можете скачивать файлы