Случайная встреча с маэстро - Дино Ризи / Maestro per caso. Incontro con Dino Risi (Лино Мичике / Lino Micciche / Lino Micciché, Марко Ризи / Marco Risi) [2001, документальный, творческая биография, DVB] DVO (Первый канал)


Статистика раздачи [Обновить пиров]
Размер:  1.59 GB   |    Зарегистрирован:  8 месяцев 26 дней   |    Скачан:  0 раз

Полного источника не было: Никогда

 
   
 
 
 

[Цитировать]

Мемориальный архив. Портреты итальянцев.
Случайная встреча с маэстро: Дино Ризи

Archivio della Memoria. Collana Didattica – Ritratti Italiani.
Maestro per caso. Incontro con Dino Risi
- Год выпуска: 2001
Страна: Италия
Жанр: документальный, творческая биография
Продолжительность: 00:51:54
Перевод: Профессиональный (двухголосый) (по заказу ЗАО "Первый канал. Всемирная сеть")
Русские субтитры: нет
Режиссер: Лино Мичике / Lino Micciché, Марко Ризи / Marco Risi
Описание: Самым известным фильмом Дина Ризи стал "Запах женщины" (1974), за который он был номинирован на премию "Оскар" в двух номинациях. Итальянский кинорежиссёр, сценарист. Дипломированный врач, Ризи попал на съёмочную площадку благодаря Марио Солдати, который пригласил его в качестве ассистента на свой дебютный фильм "Джакомо-идеалист". В 1952 году он снял свой первый полнометражный художественный фильм, а в 1966 году ставший культовым "Операция "Святой Януарий". Среди снимавшихся у него актеров: Витторио Гассман, Доминик Санда, Роми Шнайдер, Марчелло Мастрояни, Тото, Нино Манфреди. (анонс канала "Время: Далекое и близкое")
Доп. информация: Собственная запись со спутника (канал "Время: Далекое и близкое", пакет НТВ+).
Качество: DVB
Формат: TS
Видео кодек: MPEG2
Аудио кодек: MP2
Видео: MPEG Video 2, 720x576@768x576 (4:3), 25 fps, ~3970 kbps avg
Аудио: 48 kHz, MPEG Audio 2, 2 ch, ~192.00 kbps avg

MediaInfo

Полное имя                               : H:\My Torrents\[apreder]Maestro_per_caso_Dino_Risi(2001)DVB.ts
Формат : MPEG-TS
Размер файла : 1,59 Гбайт
Продолжительность : 51 м.
Режим общего битрейта : Переменный
Общий поток : 4380 Кбит/сек
Видео
Идентификатор : 224 (0xE0)
Идентификатор меню : 258 (0x102)
Формат : MPEG Video
Версия формата : Version 2
Профиль формата : Main@Main
Параметр BVOP формата : Да
Параметр матрицы формата : Выборочная
Параметр GOP формата : M=3, N=12
Идентификатор кодека : 2
Продолжительность : 51 м.
Вид битрейта : Переменный
Битрейт : 3970 Кбит/сек
Максимальный битрейт : 5000 Кбит/сек
Ширина : 720 пикселей
Высота : 576 пикселей
Соотношение сторон : 4:3
Частота кадров : 25,000 кадров/сек
Стандарт вещания : PAL
Цветовое пространство : YUV
Субдискретизация насыщенности : 4:2:0
Битовая глубина : 8 бит
Тип развёртки : Чересстрочная
Порядок развёртки : Верхнее поле первое
Метод сжатия : С потерями
Бит/(Пиксели*Кадры) : 0.383
Размер потока : 1,44 Гбайт (91%)
Аудио
Идентификатор : 192 (0xC0)
Идентификатор меню : 258 (0x102)
Формат : MPEG Audio
Версия формата : Version 1
Профиль формата : Layer 2
Идентификатор кодека : 3
Продолжительность : 51 м.
Вид битрейта : Постоянный
Битрейт : 192 Кбит/сек
Каналы : 2 канала
Частота : 48,0 КГц
Метод сжатия : С потерями
Задержка видео : -389 мс.
Размер потока : 71,3 Мбайт (4%)
Язык : German
Язык, дополнительно : Clean effects

Скриншоты


Скриншоты анаморфированные


-273/255√
[teatrix.ru].t16366.torrent 
Торрент: Зарегистрирован [ 2016-03-15 12:00 ] · 8E4A7EB32D1B469A0D46310E2EA7846E312DC45E

Скачать .torrent

Скачать

16 KB

Статус: проверено
Скачан: 0 раз
Размер: 1.59 GB
terms.php



Показать сообщения:    

Текущее время: 10-Дек 21:36

Часовой пояс: UTC + 3


Вы не можете начинать темы
Вы не можете отвечать на сообщения
Вы не можете редактировать свои сообщения
Вы не можете удалять свои сообщения
Вы не можете голосовать в опросах
Вы не можете прикреплять файлы к сообщениям
Вы можете скачивать файлы