Марчелло Мастроянни. По страницам памяти / Marcello Mastroianni - I Remember / Marcello Mastroianni - mi ricordo, si, io mi ricordo (Анна Мария Тато / Anna Maria Tato / Anna Maria Tatò) [1997, документальный, биография, DVB] DVO (Первый канал)


Статистика раздачи [Обновить пиров]
Размер:  2.75 GB   |    Зарегистрирован:  8 месяцев 25 дней   |    Скачан:  0 раз

Полного источника не было: Никогда

 
   
 
 
 

[Цитировать]

Марчелло Мастроянни. По страницам памяти
Marcello Mastroianni: I Remember / Marcello Mastroianni: mi ricordo, sì, io mi ricordo- Год выпуска: 1997
Страна: Италия
Жанр: документальный, биография
Продолжительность: 01:30:02
Перевод: Профессиональный (двухголосый) (по заказу ЗАО "Первый канал. Всемирная сеть")
Русские субтитры: нет
Режиссер: Анна Мария Тато / Anna Maria Tatò
Описание: Композитор Армандо Тровайоли / Armando Trovajoli. Фильм итальянских документалистов посвящен Марчелло Мастроянни. Период его творческого расцвета и мировой известности начинается с 1959 года, когда Федерико Феллини пригласил его на главную роль в фильм "Сладкая жизнь". В облике журналиста Марчелло Рубини закладываются основы характерного "антигероя" итальянского и европейского авторского кино - умного и циничного гедониста, обаятельного и равнодушного Казановы. Сыграв в кино свыше 120 преимущественно главных ролей, создал своего рода визуальную энциклопедию итальянского характера на экране. В одном из последних своих фильмов - "Прет-а-порте" Роберта Олтмана - Мастроянни сыграл обаятельного пожилого ловеласа, который влюблён в героиню Софи Лорен. Марчелло Мастроянни умер два года спустя от рака. У его смертного одра дежурили как законная супруга, так и мать его дочери - Катрин Денёв. (анонс канала "Время: Далекое и близкое")
Это последнее появление на экране Марчелло Мастроянни. Съемки фильма проходили в сентябре 1996 года, а 19 декабря 1996 года Мастроянни не стало.
Доп. информация: запись со спутника (канал "Время: Далекое и близкое").
Награды: Специальный приз Silver Ribbon - Italian National Syndicate of Film Journalists 1998 режиссеру + номинация на лучшую музыку.
Информация: http://www.imdb.com/title/tt0119614/
Качество: DVB
Формат: TS
Видео кодек: MPEG2
Аудио кодек: MP2
Видео: MPEG Video 2, 720x576@768x576 (4:3), 25 fps, ~3969 kbps avg
Аудио: 48 kHz, MPEG Audio 2, 2 ch, ~192.00 kbps avg

MediaInfo

Полное имя                               : H:\My Torrents\[apreder]Marcello_Mastroianni_I_Remember(1997)DVB.ts
Формат : MPEG-TS
Размер файла : 2,75 Гбайт
Продолжительность : 1 ч. 30 м.
Режим общего битрейта : Переменный
Общий поток : 4380 Кбит/сек
Видео
Идентификатор : 224 (0xE0)
Идентификатор меню : 258 (0x102)
Формат : MPEG Video
Версия формата : Version 2
Профиль формата : Main@Main
Параметр BVOP формата : Да
Параметр матрицы формата : Выборочная
Параметр GOP формата : M=3, N=12
Идентификатор кодека : 2
Продолжительность : 1 ч. 30 м.
Вид битрейта : Переменный
Битрейт : 3969 Кбит/сек
Максимальный битрейт : 5000 Кбит/сек
Ширина : 720 пикселей
Высота : 576 пикселей
Соотношение сторон : 4:3
Частота кадров : 25,000 кадров/сек
Стандарт вещания : PAL
Цветовое пространство : YUV
Субдискретизация насыщенности : 4:2:0
Битовая глубина : 8 бит
Тип развёртки : Чересстрочная
Порядок развёртки : Верхнее поле первое
Метод сжатия : С потерями
Бит/(Пиксели*Кадры) : 0.383
Размер потока : 2,50 Гбайт (91%)
Аудио
Идентификатор : 192 (0xC0)
Идентификатор меню : 258 (0x102)
Формат : MPEG Audio
Версия формата : Version 1
Профиль формата : Layer 2
Идентификатор кодека : 3
Продолжительность : 1 ч. 30 м.
Вид битрейта : Постоянный
Битрейт : 192 Кбит/сек
Каналы : 2 канала
Частота : 48,0 КГц
Метод сжатия : С потерями
Задержка видео : -366 мс.
Размер потока : 124 Мбайт (4%)
Язык : German
Язык, дополнительно : Clean effects

Скриншоты


Скриншоты анаморфированные


-275/257√
[teatrix.ru].t16367.torrent 
Торрент: Зарегистрирован [ 2016-03-15 12:00 ] · E44668946905667E2522463BC465DB5DCD057947

Скачать .torrent

Скачать

14 KB

Статус: проверено
Скачан: 0 раз
Размер: 2.75 GB
terms.php



Показать сообщения:    

Текущее время: 10-Дек 08:05

Часовой пояс: UTC + 3


Вы не можете начинать темы
Вы не можете отвечать на сообщения
Вы не можете редактировать свои сообщения
Вы не можете удалять свои сообщения
Вы не можете голосовать в опросах
Вы не можете прикреплять файлы к сообщениям
Вы можете скачивать файлы