Музыкальный легион - Группа Culture Club (Андрей Бугенко) [2009, документальный, творческая биография, DVB]


Статистика раздачи [Обновить пиров]
Размер:  556 MB   |    Зарегистрирован:  8 месяцев 26 дней   |    Скачан:  0 раз

Полного источника не было: Никогда

 
   
 
 
 

[Цитировать]

Музыкальный легион: Группа Culture Club- Год выпуска: 2009
Страна: Россия
Жанр: документальный, творческая биография
Продолжительность: 00:26:07
Перевод: Не требуется
Русские субтитры: нет
Режиссер: Андрей Бугенко
Описание: Ведущий: Александр Лоевский. "Музыкальный Легион" - программа для тех, у кого есть не только уши, но и глаза. В передаче рассказывается о британской группе Culture Club, образовавшейся в 1981 году в Лондоне, Англия, исполнявшей мелодичный поп с элементами белого соул и активно эксплуатировавшей яркий имидж своего фронтмена Боя Джорджа. (анонс канала "Парк развлечений")
Доп. информация: Собственная запись со спутника (канал "Парк развлечений", пакет НТВ+).
Качество: DVB
Формат: TS
Видео кодек: MPEG2
Аудио кодек: MP2
Видео: MPEG Video 2, 544x576@768x576 (4:3), 25 fps, ~2669 kbps avg
Аудио: 48 kHz, MPEG Audio 2, 2 ch, ~160.00 kbps avg

MediaInfo

Полное имя                               : H:\My Torrents\[apreder]Music_Legion_Culture_Club(2009)DVB.ts
Формат : MPEG-TS
Размер файла : 556 Мбайт
Продолжительность : 26 м.
Режим общего битрейта : Переменный
Общий поток : 2978 Кбит/сек
Видео
Идентификатор : 224 (0xE0)
Идентификатор меню : 258 (0x102)
Формат : MPEG Video
Версия формата : Version 2
Профиль формата : Main@Main
Параметр BVOP формата : Да
Параметр матрицы формата : Выборочная
Параметр GOP формата : M=3, N=24
Идентификатор кодека : 2
Продолжительность : 26 м.
Вид битрейта : Переменный
Битрейт : 2669 Кбит/сек
Максимальный битрейт : 5000 Кбит/сек
Ширина : 544 пикселя
Высота : 576 пикселей
Соотношение сторон : 4:3
Частота кадров : 25,000 кадров/сек
Цветовое пространство : YUV
Субдискретизация насыщенности : 4:2:0
Битовая глубина : 8 бит
Тип развёртки : Чересстрочная
Порядок развёртки : Верхнее поле первое
Метод сжатия : С потерями
Бит/(Пиксели*Кадры) : 0.341
Размер потока : 499 Мбайт (90%)
Аудио
Идентификатор : 192 (0xC0)
Идентификатор меню : 258 (0x102)
Формат : MPEG Audio
Версия формата : Version 1
Профиль формата : Layer 2
Идентификатор кодека : 3
Продолжительность : 26 м.
Вид битрейта : Постоянный
Битрейт : 160 Кбит/сек
Каналы : 2 канала
Частота : 48,0 КГц
Метод сжатия : С потерями
Задержка видео : -334 мс.
Размер потока : 29,9 Мбайт (5%)
Язык : German
Язык, дополнительно : Clean effects

Скриншоты


Скриншоты анаморфированные


-279/261√
[teatrix.ru].t16368.torrent 
Торрент: Зарегистрирован [ 2016-03-15 12:00 ] · 44DC4477E1E69032A3EC78D9ADFC0C3E32C98D1A

Скачать .torrent

Скачать

11 KB

Статус: проверено
Скачан: 0 раз
Размер: 556 MB
terms.php



Быстрый ответ

Имя:

      
Для отправки сообщений необходимо включить JavaScript
Показать сообщения:    

Текущее время: 10-Дек 13:49

Часовой пояс: UTC + 3


Вы можете начинать темы
Вы можете отвечать на сообщения
Вы не можете редактировать свои сообщения
Вы не можете удалять свои сообщения
Вы не можете голосовать в опросах
Вы не можете прикреплять файлы к сообщениям
Вы можете скачивать файлы