Лоренца Маццетти. В мире безмолвия / Lorenza Mazzetti. In the World of Silence (Джулио Латини / Giulio Latini) [2001, документальный, биография, DVB] DVO (Первый канал)


Статистика раздачи [Обновить пиров]
Размер:  1.6 GB   |    Зарегистрирован:  8 месяцев 19 дней   |    Скачан:  0 раз

Полного источника не было: Никогда

 
   
 
 
 

[Цитировать]

Лоренца Маццетти. В мире безмолвия
Lorenza Mazzetti. In the World of Silence- Год выпуска: 2001
Страна: Италия, Великобритания
Жанр: документальный, биография
Продолжительность: 00:52:12
Перевод: Профессиональный (двухголосый) (по заказу ЗАО "Первый канал. Всемирная сеть")
Русские субтитры: нет
Режиссер: Джулио Латини / Giulio Latini
Описание: Фильм посвящен жизни и творчеству английского режиссера и сценариста - знаменитой Лоренцы Маццетти. Она родилась в 1928 году во Флоренции и была одним из организаторов движения "Свободное кино". Совместно со своими сокурсниками она организовала в Национальном кинотеатре при Британском киноинституте просмотры программы своих короткометражных фильмов. Программа называлась "Свободное кино". Это был способ показать публике фильмы, близкие по своей идеологии. Манифест, написанный специально для привлечения внимания прессы, гласил: "Мы не делали эти фильмы вместе; также у нас не было мысли вместе их показывать. Но когда они были закончены, мы почувствовали, что в них выражена общая позиция. Эта позиция подразумевает веру в свободу, в важность людей и значительность каждодневного. Как кинематографисты мы верим, что ни один фильм не может быть слишком личным. Изображение говорит. Звук усиливает и комментирует. Размер несущественен. Совершенство не является целью". Манифест сработал: все ведущие газеты и журналы написали о программе. (анонс канала "Время: Далекое и близкое")
В движение "Свободное кино" входили режиссеры: Линдсей Андерсон, Карел Рейш, Лоренца Маццетти, Джон Шлезингер, Джон Ирвин, Тони Ричардсон, Клод Горетта, Роберт Вэс, Джон Флетчер, Алан Таннер, Найджел МакАйзек, Лесли Дайкен, Майкл Григсби, Элизабет Рассел.
Доп. информация: Собственная запись со спутника (канал "Время: Далекое и близкое", пакет НТВ+).
Качество: DVB
Формат: TS
Видео кодек: MPEG2
Аудио кодек: MP2
Видео: MPEG Video 2, 720x576@768x576 (4:3), 25 fps, ~3970 kbps avg
Аудио: 48 kHz, MPEG Audio 2, 2 ch, ~192.00 kbps avg

MediaInfo

Полное имя                               : H:\My Torrents\[apreder]Lorenza_Mazzetti_In_the_World_of_Silence(2001)DVB.ts
Формат : MPEG-TS
Размер файла : 1,60 Гбайт
Продолжительность : 52 м.
Режим общего битрейта : Переменный
Общий поток : 4381 Кбит/сек
Максимальный общий битрейт : 35,5 Мбит/сек
Видео
Идентификатор : 4113 (0x1011)
Идентификатор меню : 1 (0x1)
Формат : MPEG Video
Версия формата : Version 2
Профиль формата : Main@Main
Параметр BVOP формата : Да
Параметр матрицы формата : Выборочная
Параметр GOP формата : M=3, N=12
Идентификатор кодека : 2
Продолжительность : 52 м.
Вид битрейта : Переменный
Битрейт : 3970 Кбит/сек
Ширина : 720 пикселей
Высота : 576 пикселей
Соотношение сторон : 4:3
Частота кадров : 25,000 кадров/сек
Стандарт вещания : PAL
Цветовое пространство : YUV
Субдискретизация насыщенности : 4:2:0
Битовая глубина : 8 бит
Тип развёртки : Чересстрочная
Порядок развёртки : Верхнее поле первое
Метод сжатия : С потерями
Бит/(Пиксели*Кадры) : 0.383
Размер потока : 1,45 Гбайт (91%)
Аудио
Идентификатор : 4352 (0x1100)
Идентификатор меню : 1 (0x1)
Формат : MPEG Audio
Версия формата : Version 1
Профиль формата : Layer 2
Идентификатор кодека : 4
Продолжительность : 52 м.
Вид битрейта : Постоянный
Битрейт : 192 Кбит/сек
Каналы : 2 канала
Частота : 48,0 КГц
Метод сжатия : С потерями
Размер потока : 71,7 Мбайт (4%)

Скриншоты


Скриншоты анаморфированные


-284/266√
[teatrix.ru].t16370.torrent 
Торрент: Зарегистрирован [ 2016-03-15 11:59 ] · EDD999A1E63EB728F7D51D9BD7F4AD6F3AB2F2D5

Скачать .torrent

Скачать

16 KB

Статус: проверено
Скачан: 0 раз
Размер: 1.6 GB
terms.php



Показать сообщения:    

Текущее время: 03-Дек 22:46

Часовой пояс: UTC + 3


Вы не можете начинать темы
Вы не можете отвечать на сообщения
Вы не можете редактировать свои сообщения
Вы не можете удалять свои сообщения
Вы не можете голосовать в опросах
Вы не можете прикреплять файлы к сообщениям
Вы можете скачивать файлы