(Pop, Classical crossover) Giorgia Fumanti - Magnificat - 2009, FLAC (tracks+.cue), lossless


 

[Цитировать]

Giorgia Fumanti - Magnificat
Жанр: Pop, Classical crossover
Год издания: 2009
Страна: Канада
Аудиокодек: FLAC (*.flac)
Тип рипа: image+.cue
Битрейт аудио: lossless
Продолжительность: 00:49:21
Источник (релизер): Найдено в сети
Наличие сканов в содержимом раздачи: нет
Треклист:
01. Magnificat
02. Ave Maria (Caccini)
03. In Trutina
04. Ninna Nanna
05. Going Home
06. Ave Maria
07. Good Night My Angel
08. What A Wonderful World
09. Astro Del Ciel (Sainte Nuit)
10. Minuit Chrétien
11. Ave Maria (Bach/Gounod)
12. Psalmus Ode

Содержание индексной карты (.CUE)

PERFORMER "Giorgia Fumanti"
TITLE "Magnificat"
FILE "Giorgia Fumanti - Magnificat.flac" WAVE
TRACK 01 AUDIO
TITLE "Track 1"
INDEX 01 00:00:00
TRACK 02 AUDIO
TITLE "Track 2"
INDEX 01 04:38:14
TRACK 03 AUDIO
TITLE "Track 3"
INDEX 01 08:24:44
TRACK 04 AUDIO
TITLE "Track 4"
INDEX 01 10:43:68
TRACK 05 AUDIO
TITLE "Track 5"
INDEX 01 14:18:02
TRACK 06 AUDIO
TITLE "Track 6"
INDEX 01 19:21:68
TRACK 07 AUDIO
TITLE "Track 7"
INDEX 01 24:45:74
TRACK 08 AUDIO
TITLE "Track 8"
INDEX 01 28:58:20
TRACK 09 AUDIO
TITLE "Track 9"
INDEX 01 32:56:53
TRACK 10 AUDIO
TITLE "Track 10"
INDEX 01 36:37:32
TRACK 11 AUDIO
TITLE "Track 11"
INDEX 01 41:46:09
TRACK 12 AUDIO
TITLE "Track 12"
INDEX 01 45:14:69

Лог проверки качества

AUDIOCHECKER v2.0 beta (build 457) - by Dester - opdester@freemail.hu
~~~~~~~~~~~~~~~~~~~~~~~~~~~~~~~~~~
-=== DO NOT EDIT THIS FILE! ===-
Path: ...\Giorgia Fumanti - Magnificat
1 -=- Giorgia Fumanti - Magnificat.flac -=- CDDA (100%)
68182564



Показать сообщения:    

Текущее время: 09-Дек 01:08

Часовой пояс: UTC + 3


Вы не можете начинать темы
Вы не можете отвечать на сообщения
Вы не можете редактировать свои сообщения
Вы не можете удалять свои сообщения
Вы не можете голосовать в опросах
Вы не можете прикреплять файлы к сообщениям
Вы не можете скачивать файлы