Бернардо Бертолуччи. Зачем нужно кино? / Bernardo Bertolucci. What’s the Purpose of Cinema? (Сандро Лаи / Sandro Lai) [2002, документальный, творческая биография, DVB] VO (Первый канал) + Sub (en hard)


Статистика раздачи [Обновить пиров]
Размер:  1.5 GB   |    Зарегистрирован:  8 месяцев 20 дней   |    Скачан:  0 раз

Полного источника не было: Никогда

 
   
 
 
 

[Цитировать]

Бернардо Бертолуччи. Зачем нужно кино?
Bernardo Bertolucci. What’s the Purpose of Cinema? / Bernardo Bertolucci. A cosa serve il cinema?- Год выпуска: 2002
Страна: Италия
Жанр: документальный, творческая биография
Продолжительность: 00:51:21
Перевод: Профессиональный (одноголосый) (по заказу ЗАО "Первый канал. Всемирная сеть")
Русские субтитры: нет
Режиссер: Сандро Лаи / Sandro Lai
Описание: Документальный фильм, посвященный автору "Двадцатого века" и "Последнего танго в Париже". Уроженец Пармы, сын поэта, ученик Пазолини, Бернардо Бертолуччи был последователем идей Маркса и Фрейда, в кинематографе отдавая предпочтение французам, например, завзятому радикалу Годару или великому Жану Ренуару, чей фильм "Правила игры" бунтарь-итальянец всегда считал лучшим в истории кинематографа. (анонс канала "Время: Далекое и близкое")
Информация: http://www.imdb.com/title/tt0331885/
Доп. информация: Собственная запись со спутника (канал "Время: Далекое и близкое", пакет НТВ+).
Качество: DVB
Формат: MPG
Видео кодек: MPEG2
Аудио кодек: MP2
Видео: MPEG Video 2, 720x576@768x576 (4:3), 25 fps, ~3918 kbps avg
Аудио: 48 kHz, MPEG Audio 2, 2 ch, ~192.00 kbps avg

MediaInfo

Полное имя                               : H:\My Torrents\[apreder]Bernardo_Bertolucci_A_cosa_serve_il_cinema(2002)DVB.mpg
Формат : MPEG-PS
Размер файла : 1,50 Гбайт
Продолжительность : 51 м.
Режим общего битрейта : Переменный
Общий поток : 4194 Кбит/сек
Видео
Идентификатор : 224 (0xE0)
Формат : MPEG Video
Версия формата : Version 2
Профиль формата : Main@Main
Параметр BVOP формата : Да
Параметр матрицы формата : Выборочная
Параметр GOP формата : M=3, N=12
Продолжительность : 51 м.
Вид битрейта : Переменный
Битрейт : 3918 Кбит/сек
Максимальный битрейт : 5000 Кбит/сек
Ширина : 720 пикселей
Высота : 576 пикселей
Соотношение сторон : 4:3
Частота кадров : 25,000 кадров/сек
Стандарт вещания : PAL
Цветовое пространство : YUV
Субдискретизация насыщенности : 4:2:0
Битовая глубина : 8 бит
Тип развёртки : Чересстрочная
Порядок развёртки : Верхнее поле первое
Метод сжатия : С потерями
Бит/(Пиксели*Кадры) : 0.378
Размер потока : 1,41 Гбайт (93%)
Аудио
Идентификатор : 192 (0xC0)
Формат : MPEG Audio
Версия формата : Version 1
Профиль формата : Layer 2
Продолжительность : 51 м.
Вид битрейта : Постоянный
Битрейт : 192 Кбит/сек
Каналы : 2 канала
Частота : 48,0 КГц
Метод сжатия : С потерями
Задержка видео : -389 мс.
Размер потока : 70,6 Мбайт (5%)

Скриншоты


Скриншоты анаморфированные


-288/270√
[teatrix.ru].t16380.torrent 
Торрент: Зарегистрирован [ 2016-03-15 11:59 ] · 526D8C767975B1FD0B3384AE7716E08D0E5BB6ED

Скачать .torrent

Скачать

16 KB

Статус: проверено
Скачан: 0 раз
Размер: 1.5 GB
terms.php



Показать сообщения:    

Текущее время: 04-Дек 19:15

Часовой пояс: UTC + 3


Вы не можете начинать темы
Вы не можете отвечать на сообщения
Вы не можете редактировать свои сообщения
Вы не можете удалять свои сообщения
Вы не можете голосовать в опросах
Вы не можете прикреплять файлы к сообщениям
Вы можете скачивать файлы