Витторио де Сика. Такая жизнь / Vittorio de Sica, Cosi e la Vita / Vittorio de Sica, Cosi è la Vita (Сандро Лаи / Sandro Lai) [2001, документальный, творческая биография, DVB] VO (Первый канал)


Статистика раздачи [Обновить пиров]
Размер:  1.61 GB   |    Зарегистрирован:  8 месяцев 19 дней   |    Скачан:  0 раз

Полного источника не было: Никогда

 
   
 
 
 

[Цитировать]

Витторио де Сика. Такая жизнь
Vittorio de Sica, Cosi è la Vita- Год выпуска: 2001
Страна: Италия
Жанр: документальный, творческая биография
Продолжительность: 00:54:14
Перевод: Профессиональный (одноголосый) (по заказу ЗАО "Первый канал. Всемирная сеть")
Русские субтитры: нет
Режиссер: Сандро Лаи / Sandro Lai
Описание: Документальный рассказ о творчестве кинорежиссера Витторио де Сика. Один из отцов-основателей неорелизма Витторио де Сика говорил, что его семья жила в «трагической и аристократической бедности» — было не до театра. Хотя с 15 лет юноша сочинял небольшие пьесы и участвовал в любительских спектаклях для раненых, вряд ли кто-то думал, что лицедейство станет профессией. В 1917 году Эдуардо Бенчивенга пристроил сына своих друзей, Витторио, в кино. Юноше досталась маленькая роль, в буквальном смысле слова «кушать подано» — он сыграл камердинера в немом фильме «Процесс Клемансо». Поиски правды привели его к тому, что критики писали: неореализм «стирает грязное итальянское бельё на глазах всего мира». И однако фильм «Шуша» с триумфом прошёл по экранам мира, и первым из итальянских картин получил премию «Оскар».
На Международном фестивале в Брюсселе «Похитители велосипедов» оказались в числе лучших фильмов всех времён и народов. Список признанных — теперь признанных — успехов режиссера можно опустить, достаточно привести лишь названия его фильмов: «Чудо в Милане», «Умберто Д.», «Чочара», «Вчера, сегодня, завтра», «Брак по-итальянски», «Подсолнухи», «Поездка»... 4 премии «Оскар» за лучший иностранный фильм. (анонс канала "Время: Далекое и близкое")
Доп. информация: Собственная запись со спутника (канал "Время: Далекое и близкое").
Качество: DVB
Формат: MPG
Видео кодек: MPEG2
Аудио кодек: MP2
Видео: MPEG Video 2, 720x576@768x576 (4:3), 25 fps, ~3981 kbps avg
Аудио: 48 kHz, MPEG Audio 2, 2 ch, ~192.00 kbps avg

MediaInfo

Полное имя                               : H:\My Torrents\[apreder]Vittotio_de_Sica_Cosi_e_la_vita(2001)DVB.mpg
Формат : MPEG-PS
Размер файла : 1,61 Гбайт
Продолжительность : 54 м.
Режим общего битрейта : Переменный
Общий поток : 4258 Кбит/сек
Видео
Идентификатор : 224 (0xE0)
Формат : MPEG Video
Версия формата : Version 2
Профиль формата : Main@Main
Параметр BVOP формата : Да
Параметр матрицы формата : Выборочная
Параметр GOP формата : M=3, N=12
Продолжительность : 54 м.
Вид битрейта : Переменный
Битрейт : 3981 Кбит/сек
Максимальный битрейт : 5000 Кбит/сек
Ширина : 720 пикселей
Высота : 576 пикселей
Соотношение сторон : 4:3
Частота кадров : 25,000 кадров/сек
Стандарт вещания : PAL
Цветовое пространство : YUV
Субдискретизация насыщенности : 4:2:0
Битовая глубина : 8 бит
Тип развёртки : Чересстрочная
Порядок развёртки : Верхнее поле первое
Метод сжатия : С потерями
Бит/(Пиксели*Кадры) : 0.384
Размер потока : 1,51 Гбайт (93%)
Аудио
Идентификатор : 192 (0xC0)
Формат : MPEG Audio
Версия формата : Version 1
Профиль формата : Layer 2
Продолжительность : 54 м.
Вид битрейта : Постоянный
Битрейт : 192 Кбит/сек
Каналы : 2 канала
Частота : 48,0 КГц
Метод сжатия : С потерями
Задержка видео : -390 мс.
Размер потока : 74,5 Мбайт (5%)

Скриншоты


Скриншоты анаморфированные


-290/272√
[teatrix.ru].t16381.torrent 
Торрент: Зарегистрирован [ 2016-03-15 11:59 ] · ECDA0AE39F4DCFBEF64CF868245387A086DB1B8B

Скачать .torrent

Скачать

17 KB

Статус: проверено
Скачан: 0 раз
Размер: 1.61 GB
terms.php



Показать сообщения:    

Текущее время: 04-Дек 00:53

Часовой пояс: UTC + 3


Вы не можете начинать темы
Вы не можете отвечать на сообщения
Вы не можете редактировать свои сообщения
Вы не можете удалять свои сообщения
Вы не можете голосовать в опросах
Вы не можете прикреплять файлы к сообщениям
Вы можете скачивать файлы