Сержио Леоне. Однажды в Америке: Американская мечта / Sergio Leone. Once Upon A Time: The American Dream (Сандро Лаи / Sandro Lai) [2002, документальный, творческая биография, DVB] VO (Первый канал) + Sub (en hard)


Статистика раздачи [Обновить пиров]
Размер:  1.42 GB   |    Зарегистрирован:  8 месяцев 18 дней   |    Скачан:  0 раз

Полного источника не было: Никогда

 
   
 
 
 

[Цитировать]

Сержио Леоне. Однажды в Америке: Американская мечта
Sergio Leone. Once Upon A Time: The American Dream
Sergio Leone. C’era un volta il sogno americano
- Год выпуска: 2002
Страна: Италия
Жанр: документальный, творческая биография
Продолжительность: 00:47:32
Перевод: Профессиональный (одноголосый) (по заказу ЗАО "Первый канал. Всемирная сеть")
Русские субтитры: нет
Режиссер: Сандро Лаи / Sandro Lai
Описание: Документальный фильм, посвящен знаменитому итальянскому режиссёру, сценаристу, продюсеру, который прославился как один из основателей жанра «спагетти-вестерн». Серджио Леоне родился в кинематографической семье. Его отец Винченцо Леоне был режиссёром (снимал фильмы под псевдонимом Роберто Роберти), мать Биче Валериан — актрисой. Его первые работы в кино связаны с жанром пеплума. Леоне начал карьеру в кино как помощник режиссёра, в этом качестве он участвовал в таких крупнобюджетных пеплумах, как «Камо грядеши» (1951) и «Бен Гур» (1959). В 1958 году он попробовал себя как сценарист и в дальнейшем выступал сценаристом всех своих режиссёрских работ.
Кинематограф Серджио Леоне оказал значительное влияние на работы многих режиссёров из разных стран. Как заметил критик, «его стилистические особенности сейчас твёрдо закреплены в словаре кинематографических клише». Дарио Ардженто, работавший с Леоне на фильме «Однажды на Диком Западе», говорил: «Серджио Леоне научил меня видеть важность конкретных, простых вещей».
Леоне является одним из любимых режиссёров Джона Ву. Квентин Тарантино после выхода «Убить Билла» признавался: «Мне всегда хотелось буквально процитировать Серджио Леоне, ещё прежде чем я вообще начал что-то ставить, и мои мексиканские заморочки всегда были осовремененными, но неприкрытыми версиями из фильмов Леоне. А теперь цитирую его, так сказать, по-японски». Роберт Родригес назвал один из своих фильмов «Однажды в Мексике» — очевидная аллюзия на названия фильмов итальянского режиссёра. (анонс канала "Время: Далекое и близкое")
Доп. информация: Собственная запись со спутника (канал "Время: Далекое и близкое", пакет НТВ+).
Качество: DVB
Формат: MPG
Видео кодек: MPEG2
Аудио кодек: MP2
Видео: MPEG Video 2, 720x576@1024x576 (16:9), 25 fps, ~4006 kbps avg
Аудио: 48 kHz, MPEG Audio 2, 2 ch, ~192.00 kbps avg

MediaInfo

Полное имя                               : H:\My Torrents\[apreder]Sergio_Leone_C’era_un_volta_il_sogno_americano(2002)DVB.mpg
Формат : MPEG-PS
Размер файла : 1,42 Гбайт
Продолжительность : 47 м.
Режим общего битрейта : Переменный
Общий поток : 4283 Кбит/сек
Видео
Идентификатор : 224 (0xE0)
Формат : MPEG Video
Версия формата : Version 2
Профиль формата : Main@Main
Параметр BVOP формата : Да
Параметр матрицы формата : Выборочная
Параметр GOP формата : M=3, N=12
Продолжительность : 47 м.
Вид битрейта : Переменный
Битрейт : 4006 Кбит/сек
Максимальный битрейт : 5000 Кбит/сек
Ширина : 720 пикселей
Высота : 576 пикселей
Соотношение сторон : 4:3
Частота кадров : 25,000 кадров/сек
Стандарт вещания : PAL
Цветовое пространство : YUV
Субдискретизация насыщенности : 4:2:0
Битовая глубина : 8 бит
Тип развёртки : Чересстрочная
Порядок развёртки : Верхнее поле первое
Метод сжатия : С потерями
Бит/(Пиксели*Кадры) : 0.386
Размер потока : 1,33 Гбайт (94%)
Аудио
Идентификатор : 192 (0xC0)
Формат : MPEG Audio
Версия формата : Version 1
Профиль формата : Layer 2
Продолжительность : 47 м.
Вид битрейта : Постоянный
Битрейт : 192 Кбит/сек
Каналы : 2 канала
Частота : 48,0 КГц
Метод сжатия : С потерями
Задержка видео : -389 мс.
Размер потока : 65,3 Мбайт (4%)

Скриншоты


Скриншоты анаморфированные


-293/275√
[teatrix.ru].t16382.torrent 
Торрент: Зарегистрирован [ 2016-03-15 11:59 ] · F8D2971DF599E90F7915E04B54C495826914E6E2

Скачать .torrent

Скачать

15 KB

Статус: проверено
Скачан: 0 раз
Размер: 1.42 GB
terms.php



Показать сообщения:    

Текущее время: 03-Дек 09:49

Часовой пояс: UTC + 3


Вы не можете начинать темы
Вы не можете отвечать на сообщения
Вы не можете редактировать свои сообщения
Вы не можете удалять свои сообщения
Вы не можете голосовать в опросах
Вы не можете прикреплять файлы к сообщениям
Вы можете скачивать файлы