Марчелло Мастроянни. Скромное обаяние нормального человека / Marcello Mastroianni. Il fascino discreto della normalita (Сандро Лаи / Sandro Lai) [2006, документальный, биография, DVB] DVO (Первый канал)


Статистика раздачи [Обновить пиров]
Размер:  1.76 GB   |    Зарегистрирован:  8 месяцев 22 дня   |    Скачан:  0 раз

Полного источника не было: Никогда

 
   
 
 
 

[Цитировать]

Марчелло Мастроянни. Скромное обаяние нормального человека
Marcello Mastroianni. Il fascino discreto della normalita- Год выпуска: 2006
Страна: Италия
Жанр: документальный, биография
Продолжительность: 00:47:32
Перевод: Профессиональный (двухголосый) (по заказу ЗАО "Первый канал. Всемирная сеть")
Русские субтитры: нет
Режиссер: Сандро Лаи / Sandro Lai
Описание: Фильм итальянских документалистов посвящен Марчелло Мастроянни. Период его творческого расцвета и мировой известности начинается с 1959 года, когда Федерико Феллини пригласил его на главную роль в фильм «Сладкая жизнь». В облике журналиста Марчелло Рубини закладываются основы характерного «антигероя» итальянского и европейского авторского кино — умного и циничного гедониста, обаятельного и равнодушного Казановы.
Сыграв в кино свыше 120 преимущественно главных ролей, создал своего рода визуальную энциклопедию итальянского характера на экране. В одном из последних своих фильмов — «Прет-а-порте» Роберта Олтмана — Мастроянни сыграл обаятельного пожилого ловеласа, который влюблён в героиню Софи Лорен. Марчелло Мастроянни умер два года спустя от рака. У его смертного одра дежурили как законная супруга, так и мать его дочери — Катрин Денёв. (анонс канала "Время: Далекое и близкое").
Доп. информация: запись со спутника (канал "Время: Далекое и близкое"). В отличие от имеющегося на трекере SATRip в данной раздаче несжатый цифровой поток и другой перевод. В предыдущей раздаче MVO (Культура), в данной раздаче DVO (Первый канал).
Качество: DVB
Формат: MPG
Видео кодек: MPEG2
Аудио кодек: MP2
Видео: MPEG Video 2, 720x576@1024x576 (16:9), 25 fps, ~3927 kbps avg
Аудио: 48 kHz, MPEG Audio 2, 2 ch, ~192.00 kbps avg

MediaInfo

Полное имя                               : H:\My Torrents\[apreder]Marcello_Mastroianni_Il_fascino_discreto_della_normalita(2006)DVB.mpg
Формат : MPEG-PS
Размер файла : 1,76 Гбайт
Продолжительность : 59 м.
Режим общего битрейта : Переменный
Общий поток : 4203 Кбит/сек
Видео
Идентификатор : 224 (0xE0)
Формат : MPEG Video
Версия формата : Version 2
Профиль формата : Main@Main
Параметр BVOP формата : Да
Параметр матрицы формата : Выборочная
Параметр GOP формата : M=3, N=12
Продолжительность : 59 м.
Вид битрейта : Переменный
Битрейт : 3927 Кбит/сек
Максимальный битрейт : 5000 Кбит/сек
Ширина : 720 пикселей
Высота : 576 пикселей
Соотношение сторон : 4:3
Частота кадров : 25,000 кадров/сек
Стандарт вещания : PAL
Цветовое пространство : YUV
Субдискретизация насыщенности : 4:2:0
Битовая глубина : 8 бит
Тип развёртки : Чересстрочная
Порядок развёртки : Верхнее поле первое
Метод сжатия : С потерями
Бит/(Пиксели*Кадры) : 0.379
Размер потока : 1,64 Гбайт (93%)
Аудио
Идентификатор : 192 (0xC0)
Формат : MPEG Audio
Версия формата : Version 1
Профиль формата : Layer 2
Продолжительность : 59 м.
Вид битрейта : Постоянный
Битрейт : 192 Кбит/сек
Каналы : 2 канала
Частота : 48,0 КГц
Метод сжатия : С потерями
Задержка видео : -388 мс.
Размер потока : 82,3 Мбайт (5%)

Скриншоты


Скриншоты анаморфированные


-294/276√
[teatrix.ru].t16383.torrent 
Торрент: Зарегистрирован [ 2016-03-15 11:59 ] · 58B188CD856B87CC2D6A9FD8E0FF54B757BAE716

Скачать .torrent

Скачать

18 KB

Статус: проверено
Скачан: 0 раз
Размер: 1.76 GB
terms.php



Показать сообщения:    

Текущее время: 06-Дек 13:13

Часовой пояс: UTC + 3


Вы не можете начинать темы
Вы не можете отвечать на сообщения
Вы не можете редактировать свои сообщения
Вы не можете удалять свои сообщения
Вы не можете голосовать в опросах
Вы не можете прикреплять файлы к сообщениям
Вы можете скачивать файлы