Римская любовь Альберто Сорди - от Рима до целого мира / RomAmor Alberto Sordi, da Roma al Mondo (Джанкарло Коверни / Giancarlo Coverni, Роберто ди Руссо / Roberto di Russo) [2007, документальный, биография, DVB] DVO (Первый канал) + Sub (en hard)


Статистика раздачи [Обновить пиров]
Размер:  1.46 GB   |    Зарегистрирован:  8 месяцев 23 дня   |    Скачан:  0 раз

Полного источника не было: Никогда

 
   
 
 
 

[Цитировать]

Римская любовь Альберто Сорди: от Рима до целого мира
RomAmor Alberto Sordi, da Roma al Mondo- Год выпуска: 2007
Страна: Италия
Жанр: документальный, творческая биография
Продолжительность: 00:53:34
Перевод: Профессиональный (двухголосый) (по заказу ЗАО "Первый канал. Всемирная сеть")
Русские субтитры: нет
Режиссер: Джанкарло Коверни / Giancarlo Coverni, Роберто ди Руссо / Roberto di Russo
Описание: Если Рим — это столица мира, то Альберто Сорди — его истинный сын. Он вобрал все пороки и доблести своей родины. Вся его жизнь была связана с любимым городом. Своим первым успехом он был обязан другому великому римлянину — Феллини, а итальянский язык стал единственным преградой в его международной карьере. На сцене Альберто Сорди мог казаться неуправляемым и грубым, а мог быть обаятельным и слегка нелепым. Он играл мошенников и жертв, милых неудачников и непревзойденных пьяниц с манерами великих комиков. Но, даже шутя, он всегда оставался серьезен... (анонс канала "Время: Далекое и близкое")
Доп. информация: Собственная запись со спутника (канал "Время: Далекое и близкое", пакет НТВ+). В отличие от имеющегося на трекере TVRip в данной раздаче несжатый цифровой поток и другой перевод. В предыдущей раздаче DVO (СПб, 5-й канал), в данной раздаче DVO (Первый канал).
Качество: DVB
Формат: MPG
Видео кодек: MPEG2
Аудио кодек: MP2
Видео: MPEG Video 2, 720x576@768x576 (4:3), 25 fps, ~3621 kbps avg
Аудио: 48 kHz, MPEG Audio 2, 2 ch, ~192.00 kbps avg

MediaInfo

Полное имя                               : H:\My Torrents\[apreder]RomAmor_Alberto_Sordi_da_Roma_al_Mondo(2007)DVB.mpg
Формат : MPEG-PS
Размер файла : 1,46 Гбайт
Продолжительность : 53 м.
Режим общего битрейта : Переменный
Общий поток : 3890 Кбит/сек
Видео
Идентификатор : 224 (0xE0)
Формат : MPEG Video
Версия формата : Version 2
Профиль формата : Main@Main
Параметр BVOP формата : Да
Параметр матрицы формата : Выборочная
Параметр GOP формата : M=3, N=12
Продолжительность : 53 м.
Вид битрейта : Переменный
Битрейт : 3621 Кбит/сек
Максимальный битрейт : 5000 Кбит/сек
Ширина : 720 пикселей
Высота : 576 пикселей
Соотношение сторон : 4:3
Частота кадров : 25,000 кадров/сек
Стандарт вещания : PAL
Цветовое пространство : YUV
Субдискретизация насыщенности : 4:2:0
Битовая глубина : 8 бит
Тип развёртки : Чересстрочная
Порядок развёртки : Верхнее поле первое
Метод сжатия : С потерями
Бит/(Пиксели*Кадры) : 0.349
Размер потока : 1,36 Гбайт (93%)
Аудио
Идентификатор : 192 (0xC0)
Формат : MPEG Audio
Версия формата : Version 1
Профиль формата : Layer 2
Продолжительность : 53 м.
Вид битрейта : Постоянный
Битрейт : 192 Кбит/сек
Каналы : 2 канала
Частота : 48,0 КГц
Метод сжатия : С потерями
Задержка видео : -270 мс.
Размер потока : 73,6 Мбайт (5%)

Скриншоты


Скриншоты анаморфированные


-296/278√
[teatrix.ru].t16384.torrent 
Торрент: Зарегистрирован [ 2016-03-15 11:59 ] · 855399017D4757545A960F9ED080F36A5609D0B8

Скачать .torrent

Скачать

15 KB

Статус: проверено
Скачан: 0 раз
Размер: 1.46 GB
terms.php



Показать сообщения:    

Текущее время: 08-Дек 07:07

Часовой пояс: UTC + 3


Вы не можете начинать темы
Вы не можете отвечать на сообщения
Вы не можете редактировать свои сообщения
Вы не можете удалять свои сообщения
Вы не можете голосовать в опросах
Вы не можете прикреплять файлы к сообщениям
Вы можете скачивать файлы