Франко Дзеффирелли - Волшебный ритм жизни / Franco Zeffirelli - A Magical Rhythm of Life / Franco Zeffirelli - un magico ritmo di vita (Сандро Лаи / Sandro Lai) [2003, документальный, творческая биография, DVB] DVO (Первый канал)


Статистика раздачи [Обновить пиров]
Размер:  1.58 GB   |    Зарегистрирован:  8 месяцев 26 дней   |    Скачан:  0 раз

Полного источника не было: Никогда

 
   
 
 
 

[Цитировать]

Франко Дзеффирелли: Волшебный ритм жизни
Franco Zeffirelli: A Magical Rhythm of Life / Franco Zeffirelli: un magico ritmo di vita- Год выпуска: 2003
Страна: Италия
Жанр: документальный, творческая биография
Продолжительность: 00:53:01
Перевод: Профессиональный (двухголосый) (по заказу ЗАО "Первый канал. Всемирная сеть")
Русские субтитры: нет
Режиссер: Сандро Лаи / Sandro LaiОписание: Франко Джефирелли родился в 1923 году во Флоренции. Начал свою карьеру в качестве актера. Работал ассистентом режиссера Лучино Висконти. В 1945 году Франко Джефирелли начал успешную карьеру оформителя декораций и художника по костюмам для оперных и театральных постановок. С 50-х годов поставил большое количество опер и пьес в театрах Лондона, Милана, Нью-Йорка и других городов и приобрел репутацию режиссера, основной чертой стиля которого является постановочная роскошь. Режиссерским дебютом Франко Джефирелли в конце 60-х стала широко разрекламированная экранизация "Укрощение строптивой" (1967) с Элизабет Тейлор и Ричардом Бартоном. Сейчас режиссеру 80, но он полон сил и творческого вдохновения. (анонс канала "Время: Далекое и близкое")Доп. информация: запись со спутника (канал "Время: Далекое и близкое").
Качество: DVB
Формат: MPEG-PS (См. при проблемах с просмотром видео)
Видео кодек: MPEG2
Аудио кодек: MP2
Видео: MPEG Video 2, 720x576@768x576 (4:3), 25 fps, ~3988 kbps avg
Аудио: 48 kHz, MPEG Audio 2, 2 ch, ~192.00 kbps avg

MediaInfo

Полное имя                               : H:\My Torrents\[apreder]Franco_Zeffirelli_A_Magical_Rhythm_of_Life(2003)DVB.mpg
Формат : MPEG-PS
Размер файла : 1,58 Гбайт
Продолжительность : 53 м.
Режим общего битрейта : Переменный
Общий поток : 4265 Кбит/сек
Видео
Идентификатор : 224 (0xE0)
Формат : MPEG Video
Версия формата : Version 2
Профиль формата : Main@Main
Параметр BVOP формата : Да
Параметр матрицы формата : Выборочная
Параметр GOP формата : M=3, N=12
Продолжительность : 53 м.
Вид битрейта : Переменный
Битрейт : 3988 Кбит/сек
Максимальный битрейт : 5000 Кбит/сек
Ширина : 720 пикселей
Высота : 576 пикселей
Соотношение сторон : 4:3
Частота кадров : 25,000 кадров/сек
Стандарт вещания : PAL
Цветовое пространство : YUV
Субдискретизация насыщенности : 4:2:0
Битовая глубина : 8 бит
Тип развёртки : Чересстрочная
Порядок развёртки : Верхнее поле первое
Метод сжатия : С потерями
Бит/(Пиксели*Кадры) : 0.385
Размер потока : 1,48 Гбайт (94%)
Аудио
Идентификатор : 192 (0xC0)
Формат : MPEG Audio
Версия формата : Version 1
Профиль формата : Layer 2
Продолжительность : 53 м.
Вид битрейта : Постоянный
Битрейт : 192 Кбит/сек
Каналы : 2 канала
Частота : 48,0 КГц
Метод сжатия : С потерями
Задержка видео : -269 мс.
Размер потока : 72,8 Мбайт (5%)

Скриншоты


Скриншоты анаморфированные


-302/284√
[teatrix.ru].t16388.torrent 
Торрент: Зарегистрирован [ 2016-03-15 11:59 ] · 49D01D7F95B65D35251905B66370A08A85C5889C

Скачать .torrent

Скачать

16 KB

Статус: проверено
Скачан: 0 раз
Размер: 1.58 GB
terms.php



Показать сообщения:    

Текущее время: 10-Дек 13:51

Часовой пояс: UTC + 3


Вы не можете начинать темы
Вы не можете отвечать на сообщения
Вы не можете редактировать свои сообщения
Вы не можете удалять свои сообщения
Вы не можете голосовать в опросах
Вы не можете прикреплять файлы к сообщениям
Вы можете скачивать файлы