Роберто Росселлини / Roberto Rossellini / Roberto Rossellini - Frammenti e battute / Roberto Rossellini - El Padre Del Neorealismo (Карло Лидзани / Carlo Lizzani) [2001, документальный, биография, DVB] DVO (Первый канал)


Статистика раздачи [Обновить пиров]
Размер:  1.82 GB   |    Зарегистрирован:  8 месяцев 24 дня   |    Скачан:  0 раз

Полного источника не было: Никогда

 
   
 
 
 

[Цитировать]

Роберто Росселлини
Roberto Rossellini: El Padre Del Neorealismo- Год выпуска: 2001
Страна: Италия
Жанр: документальный, биография
Продолжительность: 01:02:53
Перевод: Профессиональный (двухголосый) (по заказу ЗАО "Первый канал. Всемирная сеть")
Русские субтитры: нет
Режиссер: Карло Лидзани / Carlo Lizzani
Описание: Фильм посвящен одному из наиболее значимых режиссёров кинематографического движения итальянского неореализма. Роберто Росселлини положил начало неореализму в кино «военной трилогией», состоящей из фильмов «Рим, открытый город» (1945), «Пайза» (1946) и «Германия, год нулевой» (1948).
В 1948 году Росселлини получает от голливудской суперзвезды Ингрид Бергман письмо с предложением сотрудничества, и в следующем году начинает съёмки фильма «Стромболи» с Бергман в главной роли. Так началась одна из известнейших любовных историй в летописях кино. Сближение Роберто Росселлини и Ингрид Бергман сопровождалось общественным скандалом, так как оба уже состояли в браке, а у Росселлини было двое детей. У них родились сын и две дочери, из которых одна стала известной моделью и актрисой — Изабелла Росселлини.
«Генерал Делла Ровере» (1959) с Витторио Де Сика в главной роли стал последним успешным фильмом режиссёра. В конце 1950-х он посвящает себя многосерийному документальному проекту об Индии. На съёмочной площадке у него завязался роман с местной сценаристкой, которая родила от него ребёнка. Разочарованный холодным приёмом фильма об Индии и провалом в прокате исторической ленты «Ванина Ванини», Росселлини в 1963 г. собрал пресс-конференцию, на которой заявил, что поскольку «кино умерло», отныне он будет работать на телевидении, «просвещая» широкие слои публики. Для телевидения Росселлини снял общеобразовательные фильмы-биографии Людовика XIV, Сократа, Паскаля, Блаженного Августина и Франциска Ассизского, а также 3-серийный фильм об эпохе Лоренцо Великолепного. Новый стиль был впервые опробирован во французском телефильме «Приход Людовика XIV к власти» (1966), применившем художественные принципы неореализма к костюмному кино. (Wikipedia)
Доп. информация: запись со спутника (канал "Время: Далекое и близкое").
Информация: http://www.imdb.com/title/tt0376858/
Качество: DVB
Формат: MPG
Видео кодек: MPEG2
Аудио кодек: MP2
Видео: MPEG Video 2, 720x576@768x576 (4:3), 25 fps, ~3873 kbps avg
Аудио: 48 kHz, MPEG Audio 2, 2 ch, ~192.00 kbps avg

MediaInfo

Полное имя                               : H:\My Torrents\[apreder]Roberto_Rossellini_Frammenti_e_battute(2001)DVB.mpg
Формат : MPEG-PS
Размер файла : 1,82 Гбайт
Продолжительность : 1 ч. 2 м.
Режим общего битрейта : Переменный
Общий поток : 4147 Кбит/сек
Видео
Идентификатор : 224 (0xE0)
Формат : MPEG Video
Версия формата : Version 2
Профиль формата : Main@Main
Параметр BVOP формата : Да
Параметр матрицы формата : Выборочная
Параметр GOP формата : M=3, N=12
Продолжительность : 1 ч. 2 м.
Вид битрейта : Переменный
Битрейт : 3873 Кбит/сек
Максимальный битрейт : 5000 Кбит/сек
Ширина : 720 пикселей
Высота : 576 пикселей
Соотношение сторон : 4:3
Частота кадров : 25,000 кадров/сек
Стандарт вещания : PAL
Цветовое пространство : YUV
Субдискретизация насыщенности : 4:2:0
Битовая глубина : 8 бит
Тип развёртки : Чересстрочная
Порядок развёртки : Верхнее поле первое
Метод сжатия : С потерями
Бит/(Пиксели*Кадры) : 0.374
Размер потока : 1,70 Гбайт (93%)
Аудио
Идентификатор : 192 (0xC0)
Формат : MPEG Audio
Версия формата : Version 1
Профиль формата : Layer 2
Продолжительность : 1 ч. 2 м.
Вид битрейта : Постоянный
Битрейт : 192 Кбит/сек
Каналы : 2 канала
Частота : 48,0 КГц
Метод сжатия : С потерями
Задержка видео : -389 мс.
Размер потока : 86,4 Мбайт (5%)

Скриншоты


Скриншоты анаморфированные


-304/286√
[teatrix.ru].t16389.torrent 
Торрент: Зарегистрирован [ 2016-03-15 11:59 ] · 3C960665DB4C179BF3E7DEB5F66FC40D2DABBB74

Скачать .torrent

Скачать

19 KB

Статус: проверено
Скачан: 0 раз
Размер: 1.82 GB
terms.php



Показать сообщения:    

Текущее время: 09-Дек 01:08

Часовой пояс: UTC + 3


Вы не можете начинать темы
Вы не можете отвечать на сообщения
Вы не можете редактировать свои сообщения
Вы не можете удалять свои сообщения
Вы не можете голосовать в опросах
Вы не можете прикреплять файлы к сообщениям
Вы можете скачивать файлы