Ближе к звездам. Мэрилин Мэнсон / Marilyn Manson [2008, документальный, биография, DVB] VO (Муз-ТВ)


Статистика раздачи [Обновить пиров]
Размер:  478 MB   |    Зарегистрирован:  8 месяцев 19 дней   |    Скачан:  0 раз

Полного источника не было: Никогда

 
   
 
 
 

[Цитировать]

Ближе к звездам. Мэрилин Мэнсон
Marilyn Manson- Год выпуска: 2008
Страна: США
Жанр: документальный, биография
Продолжительность: 00:27:30
Перевод: Профессиональный (одноголосый) (канал "Муз-ТВ")
Русские субтитры: нет
Описание: Брайан Хью Уорнер родился в Кантоне, штат Огайо.Он был единственным ребёнком в семье торговца мебелью немецкогопроисхождения Хью Уорнера и медсестры Барбары Уорнер. В автобиографии The Long Hard Road out of Hell Мэнсон подробно описал сексуальные фетиши деда, которые сильно повлияли на его мировоззрение. В 1998 году Мэнсон встретил Роуз МакГоуэн, с которой впоследствии был помолвлен, однако, в 2000 году помолвка была расторгнута. 28 ноября 2005 года певец женится на Дите фон Тиз, но 29 декабря 2006 года Дита подала на развод со ссылкой на "непримиримые разногласия".
Доп. информация: Собственная запись со спутника (канал "Муз-ТВ", эфир 31.03.2008, пакет НТВ+).
Качество: DVB
Формат: MPG
Видео кодек: MPEG2
Аудио кодек: MP2
Видео: MPEG Video 2, 720x576@768x576 (4:3), 25 fps, ~2190 kbps avg
Аудио: 48 kHz, MPEG Audio 2, 2 ch, ~192.00 kbps avg

MediaInfo

Полное имя                               : H:\My Torrents\[apreder]Close_To_Stars_Marilyn_Manson(2008)DVB.mpg
Формат : MPEG-PS
Размер файла : 478 Мбайт
Продолжительность : 27 м.
Режим общего битрейта : Переменный
Общий поток : 2430 Кбит/сек
Видео
Идентификатор : 224 (0xE0)
Формат : MPEG Video
Версия формата : Version 2
Профиль формата : Main@Main
Параметр BVOP формата : Да
Параметр матрицы формата : Выборочная
Параметр GOP формата : M=3, N=12
Продолжительность : 27 м.
Вид битрейта : Переменный
Битрейт : 2190 Кбит/сек
Максимальный битрейт : 10000 Кбит/сек
Ширина : 720 пикселей
Высота : 576 пикселей
Соотношение сторон : 4:3
Частота кадров : 25,000 кадров/сек
Стандарт вещания : PAL
Цветовое пространство : YUV
Субдискретизация насыщенности : 4:2:0
Битовая глубина : 8 бит
Тип развёртки : Чересстрочная
Порядок развёртки : Верхнее поле первое
Метод сжатия : С потерями
Бит/(Пиксели*Кадры) : 0.211
Размер потока : 431 Мбайт (90%)
Аудио
Идентификатор : 192 (0xC0)
Формат : MPEG Audio
Версия формата : Version 1
Профиль формата : Layer 2
Продолжительность : 27 м.
Вид битрейта : Постоянный
Битрейт : 192 Кбит/сек
Каналы : 2 канала
Частота : 48,0 КГц
Метод сжатия : С потерями
Задержка видео : -486 мс.
Размер потока : 37,8 Мбайт (8%)

Скриншоты


Скриншоты анаморфированные


-321/303√
[teatrix.ru].t16392.torrent 
Торрент: Зарегистрирован [ 2016-03-15 11:59 ] · A9CF21095EA38A2ACC70F339ABDFC872E9C664D5

Скачать .torrent

Скачать

19 KB

Статус: проверено
Скачан: 0 раз
Размер: 478 MB
terms.php



Быстрый ответ

Имя:

      
Для отправки сообщений необходимо включить JavaScript
Показать сообщения:    

Текущее время: 04-Дек 06:51

Часовой пояс: UTC + 3


Вы можете начинать темы
Вы можете отвечать на сообщения
Вы не можете редактировать свои сообщения
Вы не можете удалять свои сообщения
Вы не можете голосовать в опросах
Вы не можете прикреплять файлы к сообщениям
Вы можете скачивать файлы