Разоблачение секретов Голливуда / VH1 News Presents: Hollywood Secrets Revealed - Scenes They Don't Want You to See (Тони Пеллегрино / Tony Pellegrino) [2006, документальный, разоблачение, DVB] DVO (VH1RU)


Статистика раздачи [Обновить пиров]
Размер:  457 MB   |    Зарегистрирован:  8 месяцев 23 дня   |    Скачан:  0 раз

Полного источника не было: Никогда

 
   
 
 
 

[Цитировать]

Разоблачение секретов Голливуда
VH1 News Presents: Hollywood Secrets Revealed - Scenes They Don't Want You to See- Год выпуска: 2006
Страна: США
Жанр: документальный, разоблачение
Продолжительность: 00:23:55
Перевод: Профессиональный (двухголосый) (канал VH1RU)
Русские субтитры: нет
Режиссер: Тони Пеллегрино / Tony Pellegrino
В ролях: Кевин Костнер, Мадонна, Леонардо ДиКаприо, Тоби Магуайр, Анжелина Джоли, Миша Бартон, Мэг Райан, Николас Кейдж, Сэмюэл Л. Джексон, Кейт Бэкинсейл, Сильвестр Сталлоне, Дженнифер Энистон, Николь Кидман, Уэсли Снайпс, Харрисон Форд, Жан-Клод Ван Дамм, Арнольд Шварценеггер
Описание: Ужастики, обнаженка, реклама… У каждой звезды есть свой скелет в шкафу. Вы увидите ранние, не всегда удачные, работы сегодняшних звезд. Вы узнаете, как знаменитости стараются скрыть свое прошлое от публики. Фильм раскроет секреты самых блистательных звезд Голливуда, которые снимались во всех фильмах подряд, чтобы заработать побольше денег. Вы увидите то, что они хотят от вас скрыть.
Доп. информация: Собственная запись со спутника (канал VH1RU, пакет НТВ+).
Информация: http://www.imdb.com/title/tt0853219/
Качество: DVB
Формат: MPG
Видео кодек: MPEG2
Аудио кодек: MP2
Видео: MPEG Video 2, 704x576@768x576 (4:3), 25 fps, ~2426 kbps avg
Аудио: 48 kHz, MPEG Audio 2, 2 ch, ~192.00 kbps avg

MediaInfo

Полное имя                               : H:\My Torrents\[apreder]Hollywood_Secrets_Revealed(2006)DVB.mpg
Формат : MPEG-PS
Размер файла : 457 Мбайт
Продолжительность : 23 м.
Режим общего битрейта : Переменный
Общий поток : 2671 Кбит/сек
Видео
Идентификатор : 224 (0xE0)
Формат : MPEG Video
Версия формата : Version 2
Профиль формата : Main@Main
Параметр BVOP формата : Да
Параметр матрицы формата : Выборочная
Параметр GOP формата : M=3, N=24
Продолжительность : 23 м.
Вид битрейта : Переменный
Битрейт : 2426 Кбит/сек
Максимальный битрейт : 15,0 Мбит/сек
Ширина : 704 пикселя
Высота : 576 пикселей
Соотношение сторон : 4:3
Частота кадров : 25,000 кадров/сек
Стандарт вещания : PAL
Цветовое пространство : YUV
Субдискретизация насыщенности : 4:2:0
Битовая глубина : 8 бит
Тип развёртки : Чересстрочная
Порядок развёртки : Верхнее поле первое
Метод сжатия : С потерями
Бит/(Пиксели*Кадры) : 0.239
Размер потока : 415 Мбайт (91%)
Аудио
Идентификатор : 192 (0xC0)
Формат : MPEG Audio
Версия формата : Version 1
Профиль формата : Layer 2
Продолжительность : 23 м.
Вид битрейта : Постоянный
Битрейт : 192 Кбит/сек
Каналы : 2 канала
Частота : 48,0 КГц
Метод сжатия : С потерями
Задержка видео : -488 мс.
Размер потока : 32,8 Мбайт (7%)

Скриншоты


Скриншоты анаморфированные


-323/305√
[teatrix.ru].t16393.torrent 
Торрент: Зарегистрирован [ 2016-03-15 11:59 ] · 7F931B8F33E50C66F9C8D9C50519EDE64855F894

Скачать .torrent

Скачать

18 KB

Статус: проверено
Скачан: 0 раз
Размер: 457 MB
terms.php



Показать сообщения:    

Текущее время: 07-Дек 17:30

Часовой пояс: UTC + 3


Вы не можете начинать темы
Вы не можете отвечать на сообщения
Вы не можете редактировать свои сообщения
Вы не можете удалять свои сообщения
Вы не можете голосовать в опросах
Вы не можете прикреплять файлы к сообщениям
Вы можете скачивать файлы