Голливуд поющий и танцующий: История мюзикла / Hollywood Singing and Dancing: A Musical History from the 1920s to the 21st Century (Марк Маклафлин / Mark McLaughlin) [2008, документально-познавательный, DVB] DVO (МедиаПроект)


Статистика раздачи [Обновить пиров]
Размер:  14.19 GB   |    Зарегистрирован:  8 месяцев 25 дней   |    Скачан:  0 раз

Полного источника не было: Никогда

Личеров:  3  [  0 KB/s  ]   Подробная статистика пиров
 
   
 
 
 

[Цитировать]

Голливуд поющий и танцующий: История мюзикла
Hollywood Singing and Dancing: A Musical History from the 1920s to the 21st Century- Год выпуска: 2008
Страна: США
Жанр: документально-познавательный
Продолжительность: 11:30:50
Перевод: Профессиональный (двухголосый) (по заказу ООО "МедиаПроект")
Русские субтитры: нет
Режиссер: Марк Маклафлин / Mark McLaughlin
Описание: Мюзиклы Голливуда пережили много трансформаций... Ими восхищались, их презирали, они завоевывали зрителей, а потом их снова забывали. Но каждый раз они возрождались из пепла обновленными, идущими в ногу со временем! Сейчас создателям фильмов, в которых поют и танцуют, приходится подстраиваться под вкусы зрителей. На заре эпохи мюзиклов режиссеры сталкивались с такой же проблемой... Яркие звезды, красочные шоу или драматические истории и скандальные номера? Все о том, как музыкальные фильмы становились легендами "фабрики грез" - в программе "Голливуд поющий и танцующий"! (анонс канала "Парк развлечений")
Награды: приз за достижения в документальном кино - Achievement Award - Newport Beach Film Festival 2008; награда San Luis Obispo International Film Festival 2008 за лучший документальный цикл.
Информация: http://www.imdb.com/find?q=Hollywood+Singing+and+Dancing&s=tt
Доп. информация: Собственная запись со спутника (канал "Парк развлечений", пакет НТВ+).
Качество: DVB
Формат: MPG
Видео кодек: MPEG2
Аудио кодек: MP2

Содержание:1920-ые годы: Зарождение мюзикла / The 1920s: The Dawn of the Hollywood Musical (2008)

Имя файла: [apreder]Hollywood_Singing_and_Dancing_1920s(2008)DVB.mpg
Продолжительность: 00:57:28
Размер: 1,23 GB
Описание: Мюзикл (или «музыкальная комедия») – фильм, в котором основное значение играют музыка, танцы и пение. При этом в большинстве случаев они связаны с не слишком сложным и замысловатым комедийным сюжетом. Наиболее большое воздействие на признание мюзиклов как самостоятельного жанра оказали такие направления искусства, как комическая опера, оперетта, бурлеск и водевиль. В постановочном отношении мюзикл является очень сложным жанром, а поэтому и требует немалого бюджета. Мюзиклы перекочевали из театра в кинематограф в США в 1920-е годы, параллельно с зарождением эпохи звукового кино.
Видео: MPEG Video 2, 544x576@768x576 (4:3), 25 fps, ~2773 kbps avg
Аудио: 48 kHz, MPEG Audio 2, 2 ch, ~160.00 kbps avg

MediaInfo

Полное имя                               : H:\My Torrents\[apreder]Hollywood_Singing_and_Dancing(2008)DVB\[apreder]Hollywood_Singing_and_Dancing_1920s(2008)DVB.mpg
Формат : MPEG-PS
Размер файла : 1,18 Гбайт
Продолжительность : 57 м.
Режим общего битрейта : Переменный
Общий поток : 2933 Кбит/сек
Видео
Идентификатор : 224 (0xE0)
Формат : MPEG Video
Версия формата : Version 2
Профиль формата : Main@Main
Параметр BVOP формата : Да
Параметр матрицы формата : Выборочная
Параметр GOP формата : M=3, N=24
Продолжительность : 57 м.
Вид битрейта : Переменный
Битрейт : 2715 Кбит/сек
Ширина : 544 пикселя
Высота : 576 пикселей
Соотношение сторон : 4:3
Частота кадров : 25,000 кадров/сек
Цветовое пространство : YUV
Субдискретизация насыщенности : 4:2:0
Битовая глубина : 8 бит
Тип развёртки : Чересстрочная
Порядок развёртки : Верхнее поле первое
Метод сжатия : С потерями
Бит/(Пиксели*Кадры) : 0.347
Размер потока : 1,09 Гбайт (93%)
Аудио
Идентификатор : 192 (0xC0)
Формат : MPEG Audio
Версия формата : Version 1
Профиль формата : Layer 2
Продолжительность : 57 м.
Вид битрейта : Постоянный
Битрейт : 160 Кбит/сек
Каналы : 2 канала
Частота : 48,0 КГц
Метод сжатия : С потерями
Размер потока : 65,8 Мбайт (5%)

Скриншоты


Скриншоты анаморфированные


1930-е годы: В пляс от Великой Депрессии / The 1930s: Dancing Away the Great Depression (2008)

Имя файла: [apreder]Hollywood_Singing_and_Dancing_1930s_Pt.1(2008)DVB.mpg + [apreder]Hollywood_Singing_and_Dancing_1930s_Pt.2(2008)DVB.mpg
Продолжительность: 00:59:34 + 00:58:14
Размер: 1,13 GB + 1,39 GB
Описание: Ленты 1930-х гг. буквально искрились танцами, песнями и невероятными сюжетами. Сказочные истории завораживали не меньше, чем хореографические и песенные композиции. За непростыми перипетиями всегда следовал хеппи-энд. Поразительные по силе и красоте голоса актеров, легкость исполнения самых сложных танцевальных номеров, невероятно изобретательная хореография сумели очаровать уже не одно поколение кинозрителей.
Видео: MPEG Video 2, 544x576@768x576 (4:3), 25 fps, Часть 1 ~2431 kbps avg, Часть 2 ~3090 kbps avg
Аудио: 48 kHz, MPEG Audio 2, 2 ch, ~160.00 kbps avg

MediaInfo

Полное имя                               : H:\My Torrents\[apreder]Hollywood_Singing_and_Dancing(2008)DVB\[apreder]Hollywood_Singing_and_Dancing_1930s_Pt.1(2008)DVB.mpg
Формат : MPEG-PS
Размер файла : 1,08 Гбайт
Продолжительность : 59 м.
Режим общего битрейта : Переменный
Общий поток : 2590 Кбит/сек
Видео
Идентификатор : 224 (0xE0)
Формат : MPEG Video
Версия формата : Version 2
Профиль формата : Main@Main
Параметр BVOP формата : Да
Параметр матрицы формата : Выборочная
Продолжительность : 59 м.
Вид битрейта : Переменный
Битрейт : 2379 Кбит/сек
Ширина : 544 пикселя
Высота : 576 пикселей
Соотношение сторон : 4:3
Частота кадров : 25,000 кадров/сек
Цветовое пространство : YUV
Субдискретизация насыщенности : 4:2:0
Битовая глубина : 8 бит
Тип развёртки : Чересстрочная
Порядок развёртки : Верхнее поле первое
Метод сжатия : С потерями
Бит/(Пиксели*Кадры) : 0.304
Размер потока : 1013 Мбайт (92%)
Аудио
Идентификатор : 192 (0xC0)
Формат : MPEG Audio
Версия формата : Version 1
Профиль формата : Layer 2
Продолжительность : 59 м.
Вид битрейта : Постоянный
Битрейт : 160 Кбит/сек
Каналы : 2 канала
Частота : 48,0 КГц
Метод сжатия : С потерями
Размер потока : 68,2 Мбайт (6%)
Полное имя : H:\My Torrents\[apreder]Hollywood_Singing_and_Dancing(2008)DVB\[apreder]Hollywood_Singing_and_Dancing_1930s_Pt.2(2008)DVB.mpg
Формат : MPEG-PS
Размер файла : 1,32 Гбайт
Продолжительность : 58 м.
Режим общего битрейта : Переменный
Общий поток : 3250 Кбит/сек
Видео
Идентификатор : 224 (0xE0)
Формат : MPEG Video
Версия формата : Version 2
Профиль формата : Main@Main
Параметр BVOP формата : Да
Параметр матрицы формата : Выборочная
Продолжительность : 58 м.
Вид битрейта : Переменный
Битрейт : 3026 Кбит/сек
Ширина : 544 пикселя
Высота : 576 пикселей
Соотношение сторон : 4:3
Частота кадров : 25,000 кадров/сек
Цветовое пространство : YUV
Субдискретизация насыщенности : 4:2:0
Битовая глубина : 8 бит
Тип развёртки : Чересстрочная
Порядок развёртки : Верхнее поле первое
Метод сжатия : С потерями
Бит/(Пиксели*Кадры) : 0.386
Размер потока : 1,23 Гбайт (93%)
Аудио
Идентификатор : 192 (0xC0)
Формат : MPEG Audio
Версия формата : Version 1
Профиль формата : Layer 2
Продолжительность : 58 м.
Вид битрейта : Постоянный
Битрейт : 160 Кбит/сек
Каналы : 2 канала
Частота : 48,0 КГц
Метод сжатия : С потерями
Размер потока : 66,6 Мбайт (5%)

Скриншоты


Скриншоты анаморфированные


Голливуд 40-х / The 1940s: Stars, Stripes and Singing (2008)

Имя файла: [apreder]Hollywood_Singing_and_Dancing_1940s_Pt.1(2008)DVB.mpg + [apreder]Hollywood_Singing_and_Dancing_1940s_Pt.2(2008)DVB.mpg
Продолжительность: 00:52:34 + 00:50:54
Размер: 1,11 GB + 1,29 GB
Описание: 1941 годом датирована яркая музыкальная комедия "Серенада Солнечной долины", которую, можно без преувеличения сказать, обессмертил выдающийся джазовый музыкант Глен Миллер и его оркестр. В СССР этот фильм попал только после войны вместе с другими трофейными картинами и сразу же завоевал бешеную популярность — мелодии этой ленты напевали повсюду. Ни одна из голливудских студий не хотела отставать в области мюзикла. Но, пожалуй, ведущей студией по производству наиболее удачных мюзиклов стала Метро-Голдвин-Майер.
Видео: MPEG Video 2, 544x576@768x576 (4:3), 25 fps, Часть 1 ~2715 kbps avg, Часть 2 ~3297 kbps avg
Аудио: 48 kHz, MPEG Audio 2, 2 ch, ~160.00 kbps avg

MediaInfo

Полное имя                               : H:\My Torrents\[apreder]Hollywood_Singing_and_Dancing(2008)DVB\[apreder]Hollywood_Singing_and_Dancing_1940s_Pt.1(2008)DVB.mpg
Формат : MPEG-PS
Размер файла : 1,06 Гбайт
Продолжительность : 52 м.
Режим общего битрейта : Переменный
Общий поток : 2874 Кбит/сек
Видео
Идентификатор : 224 (0xE0)
Формат : MPEG Video
Версия формата : Version 2
Профиль формата : Main@Main
Параметр BVOP формата : Да
Параметр матрицы формата : Выборочная
Продолжительность : 52 м.
Вид битрейта : Переменный
Битрейт : 2657 Кбит/сек
Ширина : 544 пикселя
Высота : 576 пикселей
Соотношение сторон : 4:3
Частота кадров : 25,000 кадров/сек
Цветовое пространство : YUV
Субдискретизация насыщенности : 4:2:0
Битовая глубина : 8 бит
Тип развёртки : Чересстрочная
Порядок развёртки : Верхнее поле первое
Метод сжатия : С потерями
Бит/(Пиксели*Кадры) : 0.339
Размер потока : 999 Мбайт (92%)
Аудио
Идентификатор : 192 (0xC0)
Формат : MPEG Audio
Версия формата : Version 1
Профиль формата : Layer 2
Продолжительность : 52 м.
Вид битрейта : Постоянный
Битрейт : 160 Кбит/сек
Каналы : 2 канала
Частота : 48,0 КГц
Метод сжатия : С потерями
Размер потока : 60,2 Мбайт (6%)
Полное имя : H:\My Torrents\[apreder]Hollywood_Singing_and_Dancing(2008)DVB\[apreder]Hollywood_Singing_and_Dancing_1940s_Pt.2(2008)DVB.mpg
Формат : MPEG-PS
Размер файла : 1,23 Гбайт
Продолжительность : 50 м.
Режим общего битрейта : Переменный
Общий поток : 3457 Кбит/сек
Видео
Идентификатор : 224 (0xE0)
Формат : MPEG Video
Версия формата : Version 2
Профиль формата : Main@Main
Параметр BVOP формата : Да
Параметр матрицы формата : Выборочная
Продолжительность : 50 м.
Вид битрейта : Переменный
Битрейт : 3228 Кбит/сек
Ширина : 544 пикселя
Высота : 576 пикселей
Соотношение сторон : 4:3
Частота кадров : 25,000 кадров/сек
Цветовое пространство : YUV
Субдискретизация насыщенности : 4:2:0
Битовая глубина : 8 бит
Тип развёртки : Чересстрочная
Порядок развёртки : Верхнее поле первое
Метод сжатия : С потерями
Бит/(Пиксели*Кадры) : 0.412
Размер потока : 1,15 Гбайт (93%)
Аудио
Идентификатор : 192 (0xC0)
Формат : MPEG Audio
Версия формата : Version 1
Профиль формата : Layer 2
Продолжительность : 50 м.
Вид битрейта : Постоянный
Битрейт : 160 Кбит/сек
Каналы : 2 канала
Частота : 48,0 КГц
Метод сжатия : С потерями
Размер потока : 58,2 Мбайт (5%)

Скриншоты


Скриншоты анаморфированные


Пятидесятые: Золотая пора мюзиклов / The 1950s: The Golden Era of the Musical (2008)

Имя файла: [apreder]Hollywood_Singing_and_Dancing_1950s_Pt.1(2008)DVB.mpg + [apreder]Hollywood_Singing_and_Dancing_1950s_Pt.2(2008)DVB.mpg
Продолжительность: 00:52:13 + 00:52:44
Размер: 1,19 GB + 1,18 GB
Описание: После Роджерс Фред Астер танцевал на экране с разными партнершами: Элинор Пауэл, Ритой Хейуорт, Одри Хепберн. Фильмы с его участием снимали лучшие режиссеры Голливуда — В. Миннелли, С. Донен, Ж. Негулеско, Р. Мамулян. Среди мюзиклов 1950-х годов выделяются "Длинноногий папочка" (1955), "Забавная мордашка" (1957), "Шелковые чулки" (1957). В 1952 году Хоукс снимает классический мюзикл "Джентльмены предпочитают блондинок" - пение, танцы, супершоу, над Мэрилин Монро - флер аморальности: песня "Деньги - друг девушки" облетает Америку. Ее героиня - охотница за богатыми мужчинами.
Видео: MPEG Video 2, 544x576@768x576 (4:3), 25 fps, Часть 1 ~2955 kbps avg, Часть 2 ~2901 kbps avg
Аудио: 48 kHz, MPEG Audio 2, 2 ch, ~160.00 kbps avg

MediaInfo

Полное имя                               : H:\My Torrents\[apreder]Hollywood_Singing_and_Dancing(2008)DVB\[apreder]Hollywood_Singing_and_Dancing_1950s_Pt.1(2008)DVB.mpg
Формат : MPEG-PS
Размер файла : 1,14 Гбайт
Продолжительность : 52 м.
Режим общего битрейта : Переменный
Общий поток : 3115 Кбит/сек
Видео
Идентификатор : 224 (0xE0)
Формат : MPEG Video
Версия формата : Version 2
Профиль формата : Main@Main
Параметр BVOP формата : Да
Параметр матрицы формата : Выборочная
Продолжительность : 52 м.
Вид битрейта : Переменный
Битрейт : 2893 Кбит/сек
Ширина : 544 пикселя
Высота : 576 пикселей
Соотношение сторон : 4:3
Частота кадров : 25,000 кадров/сек
Цветовое пространство : YUV
Субдискретизация насыщенности : 4:2:0
Битовая глубина : 8 бит
Тип развёртки : Чересстрочная
Порядок развёртки : Верхнее поле первое
Метод сжатия : С потерями
Бит/(Пиксели*Кадры) : 0.369
Размер потока : 1,06 Гбайт (93%)
Аудио
Идентификатор : 192 (0xC0)
Формат : MPEG Audio
Версия формата : Version 1
Профиль формата : Layer 2
Продолжительность : 52 м.
Вид битрейта : Постоянный
Битрейт : 160 Кбит/сек
Каналы : 2 канала
Частота : 48,0 КГц
Метод сжатия : С потерями
Размер потока : 59,8 Мбайт (5%)
Полное имя : H:\My Torrents\[apreder]Hollywood_Singing_and_Dancing(2008)DVB\[apreder]Hollywood_Singing_and_Dancing_1950s_Pt.2(2008)DVB.mpg
Формат : MPEG-PS
Размер файла : 1,13 Гбайт
Продолжительность : 52 м.
Режим общего битрейта : Переменный
Общий поток : 3060 Кбит/сек
Видео
Идентификатор : 224 (0xE0)
Формат : MPEG Video
Версия формата : Version 2
Профиль формата : Main@Main
Параметр BVOP формата : Да
Параметр матрицы формата : Выборочная
Продолжительность : 52 м.
Вид битрейта : Переменный
Битрейт : 2839 Кбит/сек
Ширина : 544 пикселя
Высота : 576 пикселей
Соотношение сторон : 4:3
Частота кадров : 25,000 кадров/сек
Цветовое пространство : YUV
Субдискретизация насыщенности : 4:2:0
Битовая глубина : 8 бит
Тип развёртки : Чересстрочная
Порядок развёртки : Верхнее поле первое
Метод сжатия : С потерями
Бит/(Пиксели*Кадры) : 0.362
Размер потока : 1,05 Гбайт (93%)
Аудио
Идентификатор : 192 (0xC0)
Формат : MPEG Audio
Версия формата : Version 1
Профиль формата : Layer 2
Продолжительность : 52 м.
Вид битрейта : Постоянный
Битрейт : 160 Кбит/сек
Каналы : 2 канала
Частота : 48,0 КГц
Метод сжатия : С потерями
Размер потока : 60,3 Мбайт (5%)

Скриншоты


Скриншоты анаморфированные


Шестидесятые годы прошлого века: Музыкальные метаморфозы / The 1960s: A Musical Metamorphosis (2008)

Имя файла: [apreder]Hollywood_Singing_and_Dancing_1960s_Pt.1(2008)DVB.mpg + [apreder]Hollywood_Singing_and_Dancing_1960s_Pt.2(2008)DVB.mpg
Продолжительность: 00:50:49 + 00:51:14
Размер: 1,13 GB + 1,13 GB
Описание: После Второй мировой войны фабула мюзиклов стала более серьёзной, появилась «Вестсайдская история» («Westside story», 1957) Леонарда Бернстайна. За основу постановки взята шекспировская трагедия «Ромео и Джульетта», при этом действие происходит в современном Нью-Йорке. Экспрессивность танцев обозначило растущее значение хореографии.
Видео: MPEG Video 2, 544x576@768x576 (4:3), 25 fps, Часть 1 ~2869 kbps avg, Часть 2 ~2867 kbps avg
Аудио: 48 kHz, MPEG Audio 2, 2 ch, ~160.00 kbps avg

MediaInfo

Полное имя                               : H:\My Torrents\[apreder]Hollywood_Singing_and_Dancing(2008)DVB\[apreder]Hollywood_Singing_and_Dancing_1960s_Pt.1(2008)DVB.mpg
Формат : MPEG-PS
Размер файла : 1,07 Гбайт
Продолжительность : 50 м.
Режим общего битрейта : Переменный
Общий поток : 3028 Кбит/сек
Видео
Идентификатор : 224 (0xE0)
Формат : MPEG Video
Версия формата : Version 2
Профиль формата : Main@Main
Параметр BVOP формата : Да
Параметр матрицы формата : Выборочная
Продолжительность : 50 м.
Вид битрейта : Переменный
Битрейт : 2808 Кбит/сек
Ширина : 544 пикселя
Высота : 576 пикселей
Соотношение сторон : 4:3
Частота кадров : 25,000 кадров/сек
Цветовое пространство : YUV
Субдискретизация насыщенности : 4:2:0
Битовая глубина : 8 бит
Тип развёртки : Чересстрочная
Порядок развёртки : Верхнее поле первое
Метод сжатия : С потерями
Бит/(Пиксели*Кадры) : 0.358
Размер потока : 1020 Мбайт (93%)
Аудио
Идентификатор : 192 (0xC0)
Формат : MPEG Audio
Версия формата : Version 1
Профиль формата : Layer 2
Продолжительность : 50 м.
Вид битрейта : Постоянный
Битрейт : 160 Кбит/сек
Каналы : 2 канала
Частота : 48,0 КГц
Метод сжатия : С потерями
Размер потока : 58,1 Мбайт (5%)
Полное имя : H:\My Torrents\[apreder]Hollywood_Singing_and_Dancing(2008)DVB\[apreder]Hollywood_Singing_and_Dancing_1960s_Pt.2(2008)DVB.mpg
Формат : MPEG-PS
Размер файла : 1,08 Гбайт
Продолжительность : 51 м.
Режим общего битрейта : Переменный
Общий поток : 3026 Кбит/сек
Видео
Идентификатор : 224 (0xE0)
Формат : MPEG Video
Версия формата : Version 2
Профиль формата : Main@Main
Параметр BVOP формата : Да
Параметр матрицы формата : Выборочная
Продолжительность : 51 м.
Вид битрейта : Переменный
Битрейт : 2806 Кбит/сек
Ширина : 544 пикселя
Высота : 576 пикселей
Соотношение сторон : 4:3
Частота кадров : 25,000 кадров/сек
Цветовое пространство : YUV
Субдискретизация насыщенности : 4:2:0
Битовая глубина : 8 бит
Тип развёртки : Чересстрочная
Порядок развёртки : Верхнее поле первое
Метод сжатия : С потерями
Бит/(Пиксели*Кадры) : 0.358
Размер потока : 1,00 Гбайт (93%)
Аудио
Идентификатор : 192 (0xC0)
Формат : MPEG Audio
Версия формата : Version 1
Профиль формата : Layer 2
Продолжительность : 51 м.
Вид битрейта : Постоянный
Битрейт : 160 Кбит/сек
Каналы : 2 канала
Частота : 48,0 КГц
Метод сжатия : С потерями
Размер потока : 58,6 Мбайт (5%)

Скриншоты


Скриншоты анаморфированные


Семидесятые годы прошлого века: Многообразие стиля рока в кино / The 1970s: Diversity Rocks the Movies (2008)

Имя файла: [apreder]Hollywood_Singing_and_Dancing_1970s_Pt.1(2008)DVB.mpg + [apreder]Hollywood_Singing_and_Dancing_1970s_Pt.2(2008)DVB.mpg
Продолжительность: 00:50:38 + 00:49:58
Размер: 1,03 GB + 993 MB
Описание: В конце 60-х годов XX века под влиянием новых музыкальных стилей приходит новое понимание мюзикла как жанра. В спектакле «Волосы» («Hair», 1967) нашли отражение модные тогда идеи хиппи, тем самым постановка получила название «мюзикла первобытного американского лирического рока». С 70-х годов количество спектаклей сокращается, однако декорации и костюмы новых мюзиклов становятся более роскошными. Кардинальные изменения в понятие мюзикла преподнесла постановка «Иисус Христос суперзвезда» («Jesus Christ Superstar», 1971) композитора Эндрю Ллойда Уэббера и либреттиста Тима Райса.
Видео: MPEG Video 2, 544x576@768x576 (4:3), 25 fps, Часть 1 ~2612 kbps avg, Часть 2 ~2480 kbps avg
Аудио: 48 kHz, MPEG Audio 2, 2 ch, ~160.00 kbps avg

MediaInfo

Полное имя                               : H:\My Torrents\[apreder]Hollywood_Singing_and_Dancing(2008)DVB\[apreder]Hollywood_Singing_and_Dancing_1970s_Pt.1(2008)DVB.mpg
Формат : MPEG-PS
Размер файла : 1004 Мбайт
Продолжительность : 50 м.
Режим общего битрейта : Переменный
Общий поток : 2771 Кбит/сек
Видео
Идентификатор : 224 (0xE0)
Формат : MPEG Video
Версия формата : Version 2
Профиль формата : Main@Main
Параметр BVOP формата : Да
Параметр матрицы формата : Выборочная
Продолжительность : 50 м.
Вид битрейта : Переменный
Битрейт : 2556 Кбит/сек
Ширина : 544 пикселя
Высота : 576 пикселей
Соотношение сторон : 4:3
Частота кадров : 25,000 кадров/сек
Цветовое пространство : YUV
Субдискретизация насыщенности : 4:2:0
Битовая глубина : 8 бит
Тип развёртки : Чересстрочная
Порядок развёртки : Верхнее поле первое
Метод сжатия : С потерями
Бит/(Пиксели*Кадры) : 0.326
Размер потока : 926 Мбайт (92%)
Аудио
Идентификатор : 192 (0xC0)
Формат : MPEG Audio
Версия формата : Version 1
Профиль формата : Layer 2
Продолжительность : 50 м.
Вид битрейта : Постоянный
Битрейт : 160 Кбит/сек
Каналы : 2 канала
Частота : 48,0 КГц
Метод сжатия : С потерями
Размер потока : 57,9 Мбайт (6%)
Полное имя : H:\My Torrents\[apreder]Hollywood_Singing_and_Dancing(2008)DVB\[apreder]Hollywood_Singing_and_Dancing_1970s_Pt.2(2008)DVB.mpg
Формат : MPEG-PS
Размер файла : 943 Мбайт
Продолжительность : 49 м.
Режим общего битрейта : Переменный
Общий поток : 2639 Кбит/сек
Видео
Идентификатор : 224 (0xE0)
Формат : MPEG Video
Версия формата : Version 2
Профиль формата : Main@Main
Параметр BVOP формата : Да
Параметр матрицы формата : Выборочная
Продолжительность : 49 м.
Вид битрейта : Переменный
Битрейт : 2427 Кбит/сек
Ширина : 544 пикселя
Высота : 576 пикселей
Соотношение сторон : 4:3
Частота кадров : 25,000 кадров/сек
Цветовое пространство : YUV
Субдискретизация насыщенности : 4:2:0
Битовая глубина : 8 бит
Тип развёртки : Чересстрочная
Порядок развёртки : Верхнее поле первое
Метод сжатия : С потерями
Бит/(Пиксели*Кадры) : 0.310
Размер потока : 867 Мбайт (92%)
Аудио
Идентификатор : 192 (0xC0)
Формат : MPEG Audio
Версия формата : Version 1
Профиль формата : Layer 2
Продолжительность : 49 м.
Вид битрейта : Постоянный
Битрейт : 160 Кбит/сек
Каналы : 2 канала
Частота : 48,0 КГц
Метод сжатия : С потерями
Размер потока : 57,2 Мбайт (6%)

Скриншоты


Скриншоты анаморфированные


Восьмидесятые и девяностые годы прошлого века: Мюзикл - перезагрузка / The 1980s & 1990s: Rebooting the Musical (2008)

Имя файла: [apreder]Hollywood_Singing_and_Dancing_1980-1990s(2008)DVB.mpg
Продолжительность: 00:50:12
Размер: 930 Mb
Описание: В 1980-х годах имя Эндрю Ллойда Уэббера в рекламе не нуждалось. За его плечами уже была блестящая рок-опера «Иисус Христос Суперзвезда» (1970), мюзикл «Эвита» о жене аргентинского диктатора Эве Перон (1976) и мюзикл «Кошки» (1980) по мотивам стихов Т.С. Элиота.
Видео: MPEG Video 2, 544x576@768x576 (4:3), 25 fps, ~2377 kbps avg
Аудио: 48 kHz, MPEG Audio 2, 2 ch, ~160.00 kbps avg

MediaInfo

Полное имя                               : H:\My Torrents\[apreder]Hollywood_Singing_and_Dancing(2008)DVB\[apreder]Hollywood_Singing_and_Dancing_1980-1990s(2008)DVB.mpg
Формат : MPEG-PS
Размер файла : 930 Мбайт
Продолжительность : 50 м.
Режим общего битрейта : Переменный
Общий поток : 2588 Кбит/сек
Видео
Идентификатор : 224 (0xE0)
Формат : MPEG Video
Версия формата : Version 2
Профиль формата : Main@Main
Параметр BVOP формата : Да
Параметр матрицы формата : Выборочная
Продолжительность : 50 м.
Вид битрейта : Переменный
Битрейт : 2377 Кбит/сек
Ширина : 544 пикселя
Высота : 576 пикселей
Соотношение сторон : 4:3
Частота кадров : 25,000 кадров/сек
Цветовое пространство : YUV
Субдискретизация насыщенности : 4:2:0
Битовая глубина : 8 бит
Тип развёртки : Чересстрочная
Порядок развёртки : Верхнее поле первое
Метод сжатия : С потерями
Бит/(Пиксели*Кадры) : 0.303
Размер потока : 854 Мбайт (92%)
Аудио
Идентификатор : 192 (0xC0)
Формат : MPEG Audio
Версия формата : Version 1
Профиль формата : Layer 2
Продолжительность : 50 м.
Вид битрейта : Постоянный
Битрейт : 160 Кбит/сек
Каналы : 2 канала
Частота : 48,0 КГц
Метод сжатия : С потерями
Размер потока : 57,5 Мбайт (6%)

Скриншоты


Скриншоты анаморфированные


Двухтысячные: Новое начало / The 2000s: A New Beginning (2008)

Имя файла: [apreder]Hollywood_Singing_and_Dancing_2000s(2008)DVB.mpg
Продолжительность: 00:54:18
Размер: 1,10 GB
Описание: Мюзикл "Продюсеры", прогремевший на Бродвее в начале 2000-х, обязан своим появлением человеку многочисленных талантов — американскому режиссеру, драматургу, актеру, поэту, композитору и продюсеру Мелу Бруксу. Как театральный продукт "Продюсеры" не были откровением — музыкальный материал не отличался новаторством, а неполиткорректный юмор, который шокировал в конце 60-х, утратил к 2000-м свою эпатажность. Это было классическое бродвейское шоу — очередная вариация на тему американской мечты, без излишнего морализаторства высмеивающая нравы шоу-бизнеса и пародирующая бродвейские штампы. Успех мюзикла показал, что именно в таком спектакле нуждался подуставший от эпических британских мюзиклов и местных экспериментальных постановок зритель. В конце концов, когда-то на Бродвей приходили отдохнуть и посмеяться, и "Продюсеры" показали, что музыкальная комедия востребована как никогда.
Видео: MPEG Video 2, 544x576@768x576 (4:3), 25 fps, ~2683 kbps avg
Аудио: 48 kHz, MPEG Audio 2, 2 ch, ~160.00 kbps avg

MediaInfo

Полное имя                               : H:\My Torrents\[apreder]Hollywood_Singing_and_Dancing(2008)DVB\[apreder]Hollywood_Singing_and_Dancing_2000s(2008)DVB.mpg
Формат : MPEG-PS
Размер файла : 1,10 Гбайт
Продолжительность : 54 м.
Режим общего битрейта : Переменный
Общий поток : 2901 Кбит/сек
Видео
Идентификатор : 224 (0xE0)
Формат : MPEG Video
Версия формата : Version 2
Профиль формата : Main@Main
Параметр BVOP формата : Да
Параметр матрицы формата : Выборочная
Продолжительность : 54 м.
Вид битрейта : Переменный
Битрейт : 2683 Кбит/сек
Ширина : 544 пикселя
Высота : 576 пикселей
Соотношение сторон : 4:3
Частота кадров : 25,000 кадров/сек
Цветовое пространство : YUV
Субдискретизация насыщенности : 4:2:0
Битовая глубина : 8 бит
Тип развёртки : Чересстрочная
Порядок развёртки : Верхнее поле первое
Метод сжатия : С потерями
Бит/(Пиксели*Кадры) : 0.342
Размер потока : 1,02 Гбайт (92%)
Аудио
Идентификатор : 192 (0xC0)
Формат : MPEG Audio
Версия формата : Version 1
Профиль формата : Layer 2
Продолжительность : 54 м.
Вид битрейта : Постоянный
Битрейт : 160 Кбит/сек
Каналы : 2 канала
Частота : 48,0 КГц
Метод сжатия : С потерями
Размер потока : 62,2 Мбайт (6%)

Скриншоты


Скриншоты анаморфированные


Обложка

-

Внимание! Раздача ведётся путём добавления новых выпусков

Внимание! Раздача ведётся путём добавления новых выпусков; при каждом добавлении создаётся новый торрент. Чтобы начать докачку нового выпуска, пользователям необходимо сделать следующее:
(1) остановить скачивание,
(2) удалить старый торрент у себя из клиента (старые серии удалять не надо),
(3) скачать новый торрент и запустить его у себя в клиенте вместо старого, при этом указать клиенту путь в старую папку куда и должно происходить скачивание новых выпусков.
Ваш клиент при этом должен произвести хеширование (проверку) старой папки (если не производит сам - помогите ему сделать это). В результате он будет докачивать только те выпуски, которых у Вас ещё нет. Старые выпуски при этом не удаляются, а продолжают раздаваться!
Eсли Вы уже удалили старые выпуски, то предотвратить их повторную закачку можно, сняв галочки в соответствующих местах при запуске нового торрента. По возможности, желательно не удалять старые выпуски как можно дольше, чтобы релизёр не только продолжал раздавать старые выпуски, но и смог сконцентрироваться на новых.
-232/214√
[teatrix.ru].t16424.torrent 
Торрент: Зарегистрирован [ 2016-03-16 12:19 ] · 536FD2E01D6EB23B3520BD241588FC297F50DC2D

Скачать .torrent

Скачать

73 KB

Статус: проверено
Скачан: 0 раз
Размер: 14.19 GB
terms.php



Показать сообщения:    

Текущее время: 10-Дек 17:49

Часовой пояс: UTC + 3


Вы не можете начинать темы
Вы не можете отвечать на сообщения
Вы не можете редактировать свои сообщения
Вы не можете удалять свои сообщения
Вы не можете голосовать в опросах
Вы не можете прикреплять файлы к сообщениям
Вы можете скачивать файлы