Тонино Гуэрра. Осень Волшебника (Рубен Геворкянц, Ваэ Геворкянц) [2008, документальный, биография, DVB]


Статистика раздачи [Обновить пиров]
Размер:  1009 MB   |    Зарегистрирован:  8 месяцев 21 день   |    Скачан:  0 раз

Полного источника не было: Никогда

Личеров:  3  [  0 KB/s  ]   Подробная статистика пиров
 
   
 
 
 

[Цитировать]

Тонино Гуэрра
Осень Волшебника- Год выпуска: 2008
Страна: Армения
Жанр: документальный, биография
Продолжительность: 00:52:19
Перевод: Не требуется
Русские субтитры: нет
Режиссер: Рубен Геворкянц, Ваэ Геворкянц
Описание: Фильм Рубена и Ваэ Геворкянцев удивительно тонкий, импрессионистический. Авторы пренебрегли линейным автобиографическим повествованием, оно строится как бы на узелках дружбы с Андреем Тарковским, Сергеем Параджановым, Микеланджело Антониони… Конечно, "Осень волшебника" повествует и о жене – Лоре Гуэрра (Яблочкиной), благодаря которой маэстро, как он сам признается, "приобрел целый континент любви и дружбы", исколесил всю Россию и многие республики Советского Союза. Армению Тонино называет единственной страной, перевернувшей его всего, откуда он начал свое путешествие по вертикали. А Параджанова – мастером, оказавшим на него большое влияние. В 1989 году, когда Сергей Иосифович лежал в реанимации после операции, к нему пускали среди немногих Лору и Тонино, вопреки запретам врачей. Параджанов начинал разговаривать, радоваться. Конечно, после ухода из жизни знаменитого кинорежиссера Тонино не порывает дружбы с общими друзьями и с Арменией, про древние храмы которой он говорит, что они появились, потому что слезы первых христиан-монахов размыли скалы. (Валерия Олюнина для газеты "Ноев ковчег", № 11 (170) Июнь (1-15) 2011 года).
Доп. информация: Собственная запись со спутника (канал "Культура").
Качество: DVB
Формат: MPG
Видео кодек: MPEG2
Аудио кодек: MP2
Видео: MPEG Video 2, 704x576@768x576 (4:3), 25 fps, ~2450 kbps avg
Аудио: 48 kHz, MPEG Audio 2, 2 ch, ~192.00 kbps avg

MediaInfo

Полное имя                               : H:\My Torrents\[apreder]Tonino_Guerra_The_Fall_of_Wizard(2008)DVB.mpg
Формат : MPEG-PS
Размер файла : 1009 Мбайт
Продолжительность : 52 м.
Режим общего битрейта : Переменный
Общий поток : 2696 Кбит/сек
Видео
Идентификатор : 224 (0xE0)
Формат : MPEG Video
Версия формата : Version 2
Профиль формата : Main@Main
Параметр BVOP формата : Да
Параметр матрицы формата : Выборочная
Параметр GOP формата : M=3, N=24
Продолжительность : 52 м.
Вид битрейта : Переменный
Битрейт : 2450 Кбит/сек
Максимальный битрейт : 15,0 Мбит/сек
Ширина : 704 пикселя
Высота : 576 пикселей
Соотношение сторон : 4:3
Частота кадров : 25,000 кадров/сек
Стандарт вещания : PAL
Цветовое пространство : YUV
Субдискретизация насыщенности : 4:2:0
Битовая глубина : 8 бит
Тип развёртки : Прогрессивная
Порядок развёртки : Верхнее поле первое
Метод сжатия : С потерями
Бит/(Пиксели*Кадры) : 0.242
Размер потока : 917 Мбайт (91%)
Аудио
Идентификатор : 192 (0xC0)
Формат : MPEG Audio
Версия формата : Version 1
Профиль формата : Layer 2
Продолжительность : 52 м.
Вид битрейта : Постоянный
Битрейт : 192 Кбит/сек
Каналы : 2 канала
Частота : 48,0 КГц
Метод сжатия : С потерями
Задержка видео : -820 мс.
Размер потока : 71,8 Мбайт (7%)

Скриншоты


Скриншоты анаморфированные


-326/308√
[teatrix.ru].t16470.torrent 
Торрент: Зарегистрирован [ 2016-03-16 12:18 ] · C446F66F39EFA4547CF6BCC78E7CD1AF050295EE

Скачать .torrent

Скачать

20 KB

Статус: проверено
Скачан: 0 раз
Размер: 1009 MB
terms.php



Показать сообщения:    

Текущее время: 07-Дек 00:51

Часовой пояс: UTC + 3


Вы не можете начинать темы
Вы не можете отвечать на сообщения
Вы не можете редактировать свои сообщения
Вы не можете удалять свои сообщения
Вы не можете голосовать в опросах
Вы не можете прикреплять файлы к сообщениям
Вы можете скачивать файлы