Кристофер Дойл. Взболтать, но не смешивать / Orientations: Chris Doyle - Stirred But Not Shaken (Рик Фаркюхарсон / Rick Farquharson) [2001, документальный, творческая биография, DVB] DVO (Первый канал)


Статистика раздачи [Обновить пиров]
Размер:  1.46 GB   |    Зарегистрирован:  8 месяцев 23 дня   |    Скачан:  0 раз

Полного источника не было: Никогда

 
   
 
 
 

[Цитировать]

Кристофер Дойл. Взболтать, но не смешивать
Orientations: Chris Doyle - Stirred But Not Shaken- Год выпуска: 2001
Страна: Австралия
Жанр: документальный, творческая биография
Продолжительность: 00:49:56
Перевод: Профессиональный (двухголосый) (по заказу ЗАО "Первый канал. Всемирная сеть")
Русские субтитры: нет
Режиссер: Рик Фаркюхарсон / Rick Farquharson
Описание: Кристофер Дойл — выдающийся кинооператор, известный своими экстремальными ракурсами съёмки и авангардистскими цветовыми решениями; обладатель многих кинонаград. Дойл родился в Австралии, а в конце 1970-х уехал из Гонконга в Тайвань, после обосновался в Тайбэе, где работал на нефтяной вышке. Затем работал бурильщиком в Индии, пас коров в Израиле, был доктором китайской медицины в Таиланде, а потом стал оператором. Он много сотрудничал с китайскими режиссерами, такими как Вонг Карвай, Чжан Юань. Кристофер Дойл работал над фильмами "Париж, я люблю тебя", "Параноид Парк", "2046", "Невидимые волны" и над многими другими картинами, получившими мировое признание. (анонс канала "Время: Далекое и близкое")
Доп. информация: запись со спутника (канал "Время: Далекое и близкое").
Участник: Hong Kong International Film Festival 2001; Singapore International Film Festival 2001; Helsinki International Film Festival 2001; Thessaloniki International Film Festival 2003.
Информация: http://www.imdb.com/title/tt0278610/
Качество: DVB
Формат: MPG
Видео кодек: MPEG2
Аудио кодек: MP2
Видео: MPEG Video 2, 720x576@768x576 (4:3), 25 fps, ~3896 kbps avg
Аудио: 48 kHz, MPEG Audio 2, 2 ch, ~192.00 kbps avg

MediaInfo

Полное имя                               : H:\My Torrents\[apreder]Chris_Doyle_Stirred_But_Not_Shaken(2001)DVB.mpg
Формат : MPEG-PS
Размер файла : 1,46 Гбайт
Продолжительность : 49 м.
Режим общего битрейта : Переменный
Общий поток : 4171 Кбит/сек
Видео
Идентификатор : 224 (0xE0)
Формат : MPEG Video
Версия формата : Version 2
Профиль формата : Main@Main
Параметр BVOP формата : Да
Параметр матрицы формата : Выборочная
Параметр GOP формата : M=3, N=12
Продолжительность : 49 м.
Вид битрейта : Переменный
Битрейт : 3896 Кбит/сек
Максимальный битрейт : 5000 Кбит/сек
Ширина : 720 пикселей
Высота : 576 пикселей
Соотношение сторон : 4:3
Частота кадров : 25,000 кадров/сек
Стандарт вещания : PAL
Цветовое пространство : YUV
Субдискретизация насыщенности : 4:2:0
Битовая глубина : 8 бит
Тип развёртки : Чересстрочная
Порядок развёртки : Верхнее поле первое
Метод сжатия : С потерями
Бит/(Пиксели*Кадры) : 0.376
Размер потока : 1,36 Гбайт (93%)
Аудио
Идентификатор : 192 (0xC0)
Формат : MPEG Audio
Версия формата : Version 1
Профиль формата : Layer 2
Продолжительность : 49 м.
Вид битрейта : Постоянный
Битрейт : 192 Кбит/сек
Каналы : 2 канала
Частота : 48,0 КГц
Метод сжатия : С потерями
Задержка видео : -268 мс.
Размер потока : 68,6 Мбайт (5%)

Скриншоты


Скриншоты анаморфированные


-330/312√
[teatrix.ru].t16473.torrent 
Торрент: Зарегистрирован [ 2016-03-16 12:22 ] · D21D106EB686FBF878DD164CC55CB6C9CE89CF9D

Скачать .torrent

Скачать

15 KB

Статус: проверено
Скачан: 0 раз
Размер: 1.46 GB
terms.php



Показать сообщения:    

Текущее время: 09-Дек 01:03

Часовой пояс: UTC + 3


Вы не можете начинать темы
Вы не можете отвечать на сообщения
Вы не можете редактировать свои сообщения
Вы не можете удалять свои сообщения
Вы не можете голосовать в опросах
Вы не можете прикреплять файлы к сообщениям
Вы можете скачивать файлы