Черные перчатки (Л. Гайдай) [1973 г, TeleSynch]


Статистика раздачи [Обновить пиров]
Размер:  110 MB   |    Зарегистрирован:  8 месяцев 24 дня   |    Скачан:  0 раз

Полного источника не было: Никогда

 
   
 
 
 

[Цитировать]

Черные перчатки
Год выпуска: 1973
Страна: СССР
Продолжительность: 00:11:27
Перевод: Не требуется
Русские субтитры: нет
Режиссер: Л. Гайдай
Описание: Нарезка фрагментов из фильма Л. Гайдая 1973 года, «Иван Васильевич меняет профессию» на старой, немой 8 мм пленке для домашних кинопроекторов . Это фильм, посвященный вору Милославскому, показывает в основном именно Милославского и отслеживает только его судьбу. В фильм вошли дополнительные сцены погони стрельцов за Милославским и Буншей, и сцена погони милиции за Милославским.
Качество: TeleSynch
Формат: AVI
Размер: 110 Mb
Видео кодек: DivX
Аудио кодек: MP3
Видео: MPEG-4 Visual at 1200 Кбит/сек 464 x 520 (0.892) at 25.000 fps
Аудио: MPEG Audio at 128 Кбит/сек 2 канала 48,0 КГц

Отчет медиаинфо:

Общее
Полное имя : E:\фильмы\наши фильмы\Иван Васильевич меняет профессию\Черные перчатки (2).avi
Формат : AVI
Формат/Информация : Audio Video Interleave
Размер файла : 110 Мбайт
Продолжительность : 11 м.
Общий поток : 1338 Кбит/сек
Видео
Идентификатор : 0
Формат : MPEG-4 Visual
Идентификатор кодека : DX50
Идентификатор кодека/Подсказка : DivX 5
Продолжительность : 11 м.
Битрейт : 1200 Кбит/сек
Ширина : 464 пикселя
Высота : 520 пикселей
Соотношение сторон : 0,892
Частота кадров : 25,000 кадров/сек
Цветовое пространство : YUV
Субдискретизация насыщенности : 4:2:0
Метод сжатия : С потерями
Бит/(Пиксели*Кадры) : 0.199
Размер потока : 98,4 Мбайт (90%)
Заголовок : Video
Аудио
Идентификатор : 1
Формат : MPEG Audio
Версия формата : Version 1
Профиль формата : Layer 3
Идентификатор кодека : 55
Идентификатор кодека/Подсказка : MP3
Продолжительность : 11 м.
Вид битрейта : Постоянный
Битрейт : 128 Кбит/сек
Каналы : 2 канала
Частота : 48,0 КГц
Метод сжатия : С потерями
Размер потока : 10,5 Мбайт (10%)
Выравнивание : Разделение по промежуткам
Продолжительность промежутка : 40 мс. (1,00 видеокадр)
Время предзагрузки промежутка : 500 мс.
Заголовок : Audio

Скриншоты






Аннотация к фильму

[teatrix.ru].t16479.torrent 
Торрент: Зарегистрирован [ 2016-03-16 12:23 ] · DB41E7FB2A539CB629624562A6379CF595271F1C

Скачать .torrent

Скачать

18 KB

Статус: проверено
Скачан: 0 раз
Размер: 110 MB
terms.php



Показать сообщения:    

Текущее время: 09-Дек 16:34

Часовой пояс: UTC + 3


Вы не можете начинать темы
Вы не можете отвечать на сообщения
Вы не можете редактировать свои сообщения
Вы не можете удалять свои сообщения
Вы не можете голосовать в опросах
Вы не можете прикреплять файлы к сообщениям
Вы можете скачивать файлы