Голливуд без ретуши: Сильвестр Сталлоне, Жан-Клод Ван Дамм, Джим Керри, Леонардо Ди Каприо / Hollywood Raw: Sylvester Stallone, Jean Claude Van Damme, Jim Carrey, Leonardo DiCaprio (Стив Биби / Steve Beebe) [2002, документальный, DVB] DVO


Статистика раздачи [Обновить пиров]
Размер:  1.95 GB   |    Зарегистрирован:  8 месяцев 18 дней   |    Скачан:  0 раз

Полного источника не было: Никогда

 
   
 
 
 

[Цитировать]

Голливуд без ретуши
Hollywood Raw- Год выпуска: 2002
Страна: США
Жанр: документальный
Продолжительность: 01:42:56
Перевод: Профессиональный (двухголосый) (по заказу ООО "МедиаПроект")
Русские субтитры: нет
Режиссер: Стив Биби / Steve Beebe
Описание: Звезды кино – мы всегда восхищаемся голливудскими знаменитостями. Иногда мы готовы пойти на все, лишь бы увидеть их хоть одним глазком. Звезды кино – они живут одной жизнью перед камерой и другой, когда камеру выключают. Звезды кино – иногда им хочется, чтобы вы их оставили в покое. Звезды кино – блеск и гламур самых известных людей планеты на улицах Голливуда без ретуши. (из предисловия цикла)
Доп. информация: Собственная запись со спутника (канал "Парк развлечений", пакет НТВ+). В раздаче 4 эпизода из 15-серийного цикла. Остальных эпизодов в наличии нет.
Качество: DVB
Формат: MPG
Видео кодек: MPEG2
Аудио кодек: MP2
Видео: MPEG Video 2, 544x576@768x576 (4:3), 25 fps, ~2504 kbps avg
Аудио: 48 kHz, MPEG Audio 2, 2 ch, ~160.00 kbps avg

Полный список эпизодов цикла:

Season 1, Episode 1: Sylvester Stallone
Season 1, Episode 2: Charlie Sheen
Season 1, Episode 3: Julia Roberts
Season 1, Episode 4: Jean Claude Van Damme
Season 1, Episode 5: Anna Nicole Smith
Season 1, Episode 6: Nicolas Cage
Season 1, Episode 7: Jim Carrey
Season 1, Episode 8: David Hasselhoff
Season 1, Episode 9: Madonna
Season 1, Episode 10: Jack Nicholson
Season 1, Episode 11: Pamela Anderson
Season 1, Episode 12: Leonardo DiCaprio
Season 1, Episode 13: Brad Pitt
Season 1, Episode 14: Pamela Anderson and Madonna
Season 1, Episode 15: The Olympinks

Содержание раздачи:Season 1, Episode 1: Сильвестр Сталлоне / Sylvester Stallone

Продолжительность: 00:25:59
Описание: Он один из тех немногих, кто пробил себе дорогу в звезды не ролями, а текстами. Его сценарий фильма о боксере дал реактивный старт его карьере. А папарацци это обожают. Знакомьтесь, Сильвестр Сталлоне. Для некоторых он – Сильвестр, а друзья и поклонники зовут его Слай. В последние несколько лет он стал просто мечтой для папарацци: вежливый, общительный, всегда понимающий, что им нужно выполнять свою работу. Но некоторые представители прессы говорят, что так было не всегда.

MediaInfo

Полное имя                               : H:\My Torrents\[apreder]Hollywood_Raw()DVB\[apreder]Hollywood_Raw_Sylvester_Stallone()DVB.mpg
Формат : MPEG-PS
Размер файла : 505 Мбайт
Продолжительность : 25 м.
Режим общего битрейта : Переменный
Общий поток : 2718 Кбит/сек
Видео
Идентификатор : 224 (0xE0)
Формат : MPEG Video
Версия формата : Version 2
Профиль формата : Main@Main
Параметр BVOP формата : Да
Параметр матрицы формата : Выборочная
Параметр GOP формата : M=3, N=18
Продолжительность : 25 м.
Вид битрейта : Переменный
Битрейт : 2504 Кбит/сек
Ширина : 544 пикселя
Высота : 576 пикселей
Соотношение сторон : 4:3
Частота кадров : 25,000 кадров/сек
Цветовое пространство : YUV
Субдискретизация насыщенности : 4:2:0
Битовая глубина : 8 бит
Тип развёртки : Чересстрочная
Порядок развёртки : Верхнее поле первое
Метод сжатия : С потерями
Бит/(Пиксели*Кадры) : 0.320
Размер потока : 465 Мбайт (92%)
Аудио
Идентификатор : 192 (0xC0)
Формат : MPEG Audio
Версия формата : Version 1
Профиль формата : Layer 2
Продолжительность : 25 м.
Вид битрейта : Постоянный
Битрейт : 160 Кбит/сек
Каналы : 2 канала
Частота : 48,0 КГц
Метод сжатия : С потерями
Размер потока : 29,7 Мбайт (6%)

Скриншоты


Скриншоты анаморфированные


Season 1, Episode 4: Жан-Клод Ван Дамм / Jean Claude Van Damme

Продолжительность: 00:25:59
Описание: Он появился внезапно и стал звездой благодаря великолепному владению телом и привлекательной внешности и вопреки сильному акценту. «Он ходил по краю. И одно неверное движение, и его карьере пришел бы конец», - говорили многие. Знакомьтесь, Жан-Клод Ван Дамм. Гора мускулов из Брюсселя. Однажды он победил в чемпионате Европы по карате в среднем весе. В свое время он немало погулял на вечеринках, давал пищу для пересудов и, даже, попадал в неприятные истории.

MediaInfo

Полное имя                               : H:\My Torrents\[apreder]Hollywood_Raw(2002)DVB\[apreder]Hollywood_Raw_Jean_Claude_Van_Damme(2002)DVB.mpg
Формат : MPEG-PS
Размер файла : 479 Мбайт
Продолжительность : 25 м.
Режим общего битрейта : Переменный
Общий поток : 2576 Кбит/сек
Видео
Идентификатор : 224 (0xE0)
Формат : MPEG Video
Версия формата : Version 2
Профиль формата : Main@Main
Параметр BVOP формата : Да
Параметр матрицы формата : Выборочная
Продолжительность : 25 м.
Вид битрейта : Переменный
Битрейт : 2365 Кбит/сек
Ширина : 544 пикселя
Высота : 576 пикселей
Соотношение сторон : 4:3
Частота кадров : 25,000 кадров/сек
Цветовое пространство : YUV
Субдискретизация насыщенности : 4:2:0
Битовая глубина : 8 бит
Тип развёртки : Чересстрочная
Порядок развёртки : Верхнее поле первое
Метод сжатия : С потерями
Бит/(Пиксели*Кадры) : 0.302
Размер потока : 439 Мбайт (92%)
Аудио
Идентификатор : 192 (0xC0)
Формат : MPEG Audio
Версия формата : Version 1
Профиль формата : Layer 2
Продолжительность : 25 м.
Вид битрейта : Постоянный
Битрейт : 160 Кбит/сек
Каналы : 2 канала
Частота : 48,0 КГц
Метод сжатия : С потерями
Размер потока : 29,7 Мбайт (6%)

Скриншоты


Скриншоты анаморфированные


Season 1, Episode 7: Джим Керри / Jim Carrey

Продолжительность: 00:25:59
Описание: Свой путь в мир звездной славы он начал с самой низкой ступени. Жизнь Джима Керри похожа на сказочную историю, какие любят в Голливуде. Талантливый и упорный актер добился большого успеха. Но этого никто не ожидал. Вот что папарацци рассказали шоу "Голливуд без ретуши".

MediaInfo

Полное имя                               : H:\My Torrents\[apreder]Hollywood_Raw(2002)DVB\[apreder]Hollywood_Raw_Jim_Carrey(2002)DVB.mpg
Формат : MPEG-PS
Размер файла : 511 Мбайт
Продолжительность : 25 м.
Режим общего битрейта : Переменный
Общий поток : 2748 Кбит/сек
Видео
Идентификатор : 224 (0xE0)
Формат : MPEG Video
Версия формата : Version 2
Профиль формата : Main@Main
Параметр BVOP формата : Да
Параметр матрицы формата : Выборочная
Продолжительность : 25 м.
Вид битрейта : Переменный
Битрейт : 2533 Кбит/сек
Ширина : 544 пикселя
Высота : 576 пикселей
Соотношение сторон : 4:3
Частота кадров : 25,000 кадров/сек
Цветовое пространство : YUV
Субдискретизация насыщенности : 4:2:0
Битовая глубина : 8 бит
Тип развёртки : Чересстрочная
Порядок развёртки : Верхнее поле первое
Метод сжатия : С потерями
Бит/(Пиксели*Кадры) : 0.323
Размер потока : 471 Мбайт (92%)
Аудио
Идентификатор : 192 (0xC0)
Формат : MPEG Audio
Версия формата : Version 1
Профиль формата : Layer 2
Продолжительность : 25 м.
Вид битрейта : Постоянный
Битрейт : 160 Кбит/сек
Каналы : 2 канала
Частота : 48,0 КГц
Метод сжатия : С потерями
Размер потока : 29,7 Мбайт (6%)

Скриншоты


Скриншоты анаморфированные


Season 1, Episode 12: Леонардо Ди Каприо / Leonardo DiCaprio

Продолжительность: 00:25:59
Описание: Он – звезда величайшего фильма всех времен и народов. Он – один из немногих кинодетей, кто не только продолжил карьеру, но и стал большим игроком в мире кинематографа. Он – сердцеед и достойный актер. Он – Леонардо Ди Каприо.

MediaInfo

Полное имя                               : H:\My Torrents\[apreder]Hollywood_Raw(2002)DVB\[apreder]Hollywood_Raw_Leonardo_DiCaprio(2002)DVB.mpg
Формат : MPEG-PS
Размер файла : 504 Мбайт
Продолжительность : 25 м.
Режим общего битрейта : Переменный
Общий поток : 2713 Кбит/сек
Видео
Идентификатор : 224 (0xE0)
Формат : MPEG Video
Версия формата : Version 2
Профиль формата : Main@Main
Параметр BVOP формата : Да
Параметр матрицы формата : Выборочная
Параметр GOP формата : M=3, N=18
Продолжительность : 25 м.
Вид битрейта : Переменный
Битрейт : 2499 Кбит/сек
Ширина : 544 пикселя
Высота : 576 пикселей
Соотношение сторон : 4:3
Частота кадров : 25,000 кадров/сек
Цветовое пространство : YUV
Субдискретизация насыщенности : 4:2:0
Битовая глубина : 8 бит
Тип развёртки : Чересстрочная
Порядок развёртки : Верхнее поле первое
Метод сжатия : С потерями
Бит/(Пиксели*Кадры) : 0.319
Размер потока : 465 Мбайт (92%)
Аудио
Идентификатор : 192 (0xC0)
Формат : MPEG Audio
Версия формата : Version 1
Профиль формата : Layer 2
Продолжительность : 25 м.
Вид битрейта : Постоянный
Битрейт : 160 Кбит/сек
Каналы : 2 канала
Частота : 48,0 КГц
Метод сжатия : С потерями
Размер потока : 29,7 Мбайт (6%)

Скриншоты


Скриншоты анаморфированные


-346/328√
[teatrix.ru].t16490.torrent 
Торрент: Зарегистрирован [ 2016-03-16 12:27 ] · B32DDE6D360E35054238F945EC9BE4AE5E0E45F0

Скачать .torrent

Скачать

20 KB

Статус: проверено
Скачан: 0 раз
Размер: 1.95 GB
terms.php



Показать сообщения:    

Текущее время: 04-Дек 02:54

Часовой пояс: UTC + 3


Вы не можете начинать темы
Вы не можете отвечать на сообщения
Вы не можете редактировать свои сообщения
Вы не можете удалять свои сообщения
Вы не можете голосовать в опросах
Вы не можете прикреплять файлы к сообщениям
Вы можете скачивать файлы