Избранные: Кевин Бэйкон, Джуд Лоу, Киану Ривз, Юэн МакГрегор / Famous: Kevin Bacon, Jude Law, Keanu Reeves, Ewan McGregor (Кевин Мигер / Kevin M. Meagher) [2005 - 2006, документальный, DVB] VO (МедиаПроект)


Статистика раздачи [Обновить пиров]
Размер:  1.5 GB   |    Зарегистрирован:  8 месяцев 20 дней   |    Скачан:  0 раз

Полного источника не было: Никогда

 
   
 
 
 

[Цитировать]

Избранные: Кевин Бэйкон, Джуд Лоу, Киану Ривз, Юэн МакГрегор
Famous: Kevin Bacon, Jude Law, Keanu Reeves, Ewan McGregor- Год выпуска: 2005 - 2006
Страна: США
Жанр: документальный
Продолжительность: 01:26:42
Перевод: Профессиональный (одноголосый) (по заказу ООО "МедиаПроект")
Русские субтитры: нет
Режиссер: Кевин Мигер / Kevin M. Meagher
Описание: The Biography Channel — канал кабельного телевидения, специализирующийся на телевизионных программах о знаменитостях, на основе оригинальных сериалов и фильмов. Аудиторию канала составляют взрослые люди, однако в последние годы канал становится популярен также среди юной аудитории, как правило, это подростки и молодые семьи. Настоящий The Biography Chanel доступен в основном в кабельном и спутниковом телевидении. Цикл "Избранные / Famous", производства Entertainment News Service выходил на Biography Channel с 2002 по 2007 год и насчитывает всего 104 эпизода.
Доп. информация: Собственная запись со спутника (канал "Парк развлечений", пакет НТВ+). В раздаче 4 эпизода. Остальных эпизодов в наличии нет.
Качество: DVB
Формат: MPG
Видео кодек: MPEG2
Аудио кодек: MP2

Содержание раздачи:Кевин Бэйкон / Kevin Bacon (2005)

Продолжительность: 00:20:45
Описание: Кевин Бэйкон - американский актер. В 17 лет ушел из дома, чтобы стать актером. Работал в театре Manning Street Actor’s Theatre. В 20 лет состоялся его первый дебют на сцене. В последующие несколько лет он получал лишь небольшие роли. Прорыв в кино произошел в 1984 году, когда он снялся в фильме «Свободен в танце». Сыграв мальчика из большого города, который борется с пуританскими ограничениями против танцев, Бейкон становится молодежной иконой. Затем было несколько неудач в кино. И только после съемок в фильме Оливера Стоуна «JFK» (1991) карьера Бэйкона снова пошла вверх. Успешны также были работы в фильмах «Несколько хороших парней» (1992), «Дикая река» — номинация на «Золотой глобус» (1994), «Невидимка» (2000). Изобрел свою собственную игру «Число Бейкона», где побеждает тот, кто знаком с Бейконом через наименьшее количество друзей. (по материалам сайта афиша)
Видео: MPEG Video 2, 544x576@768x576 (4:3), 25 fps, ~2240 kbps avg
Аудио: 48 kHz, MPEG Audio 2, 2 ch, ~160.00 kbps avg

MediaInfo

Полное имя                               : H:\My Torrents\[apreder]Famous(2006)DVB\[apreder]Kevin_Bacon(2005)DVB.mpg
Формат : MPEG-PS
Размер файла : 382 Мбайт
Продолжительность : 21 м.
Режим общего битрейта : Переменный
Общий поток : 2449 Кбит/сек
Видео
Идентификатор : 224 (0xE0)
Формат : MPEG Video
Версия формата : Version 2
Профиль формата : Main@Main
Параметр BVOP формата : Да
Параметр матрицы формата : Выборочная
Параметр GOP формата : M=3, N=24
Продолжительность : 21 м.
Вид битрейта : Переменный
Битрейт : 2240 Кбит/сек
Ширина : 544 пикселя
Высота : 576 пикселей
Соотношение сторон : 4:3
Частота кадров : 25,000 кадров/сек
Цветовое пространство : YUV
Субдискретизация насыщенности : 4:2:0
Битовая глубина : 8 бит
Тип развёртки : Чересстрочная
Порядок развёртки : Верхнее поле первое
Метод сжатия : С потерями
Бит/(Пиксели*Кадры) : 0.286
Размер потока : 350 Мбайт (91%)
Аудио
Идентификатор : 192 (0xC0)
Формат : MPEG Audio
Версия формата : Version 1
Профиль формата : Layer 2
Продолжительность : 21 м.
Вид битрейта : Постоянный
Битрейт : 160 Кбит/сек
Каналы : 2 канала
Частота : 48,0 КГц
Метод сжатия : С потерями
Размер потока : 25,0 Мбайт (7%)

Скриншоты


Скриншоты анаморфированные


Джуд Лоу / Jude Law (2006)

Продолжительность: 00:21:58
Описание: Известный театральный актер, Джуд Лоу шел к кинематографу долго и, видимо, не очень стремился в большое кино. Когда все театральные премии были его, режиссеры не очень замечали Джуда. Он играл на Бродвее, в театре «Роял Корт», а кино было как будто просто его хобби — изредка он появлялся в короткометражках и малобюджетных картинах. Только во второй половине 90-х Джуд Лоу всерьез занялся своей кинокарьерой. Он получил за все свои работы премии за лучшие роли второго плана: за работы в «Уайльде», «Экзистенции» и «Талантливом мистере Рипли». На сегодняшний день Лоу не только популярнейший актер, который не останется без ролей, но и владелец собственной кинокомпании Natural Nylon. У него в планах множество самых разных проектов. (по материалам сайта афиша)
Видео: MPEG Video 2, 544x576@768x576 (4:3), 25 fps, ~2224 kbps avg
Аудио: 48 kHz, MPEG Audio 2, 2 ch, ~160.00 kbps avg

MediaInfo

Полное имя                               : H:\My Torrents\[apreder]Famous(2006)DVB\[apreder]Famous_Jude_Law(2006)DVB.mpg
Формат : MPEG-PS
Размер файла : 382 Мбайт
Продолжительность : 21 м.
Режим общего битрейта : Переменный
Общий поток : 2432 Кбит/сек
Видео
Идентификатор : 224 (0xE0)
Формат : MPEG Video
Версия формата : Version 2
Профиль формата : Main@Main
Параметр BVOP формата : Да
Параметр матрицы формата : Выборочная
Продолжительность : 21 м.
Вид битрейта : Переменный
Битрейт : 2224 Кбит/сек
Ширина : 544 пикселя
Высота : 576 пикселей
Соотношение сторон : 4:3
Частота кадров : 25,000 кадров/сек
Цветовое пространство : YUV
Субдискретизация насыщенности : 4:2:0
Битовая глубина : 8 бит
Тип развёртки : Чересстрочная
Порядок развёртки : Верхнее поле первое
Метод сжатия : С потерями
Бит/(Пиксели*Кадры) : 0.284
Размер потока : 350 Мбайт (91%)
Аудио
Идентификатор : 192 (0xC0)
Формат : MPEG Audio
Версия формата : Version 1
Профиль формата : Layer 2
Продолжительность : 21 м.
Вид битрейта : Постоянный
Битрейт : 160 Кбит/сек
Каналы : 2 канала
Частота : 48,0 КГц
Метод сжатия : С потерями
Размер потока : 25,2 Мбайт (7%)

Скриншоты


Скриншоты анаморфированные


Киану Ривз / Keanu Reeves (2006)

Продолжительность: 00:21:59
Описание: Киану Ривз родился в Бейруте (Ливан), в семье американского геолога и английской танцовщицы. В крови Ривза перемешались гены гавайских, китайских, английских и ирландских предков, дав ему выразительную экзотическую внешность. В детстве Ривз совсем не собирался становиться актёром: играл в шахматы, хоккей и собирался посвятить себя спорту. В команде имел прозвище «Стена» за надёжность в качестве вратаря. Учился плохо, страдал нарушением чтения и письма и был застенчив. Диплом об окончании школы так и не получил. Некоторое время он был бас-гитаристом в группах Dogstar и Becky. С 1979 года Ривз начал играть в рекламе, а потом и в студийных фильмах. На гавайском имя «Киану» означает «Прохладный бриз, дующий с гор». Однако в Голливуде сначала посчитали, что такая экзотика вредна для актёра, и сначала Ривз играл под псевдонимами. Истинное признание ему принесли роли в фильмах «Мой личный штат Айдахо», «Скорость», «На гребне волны», «Константин» и, конечно, знаменитая роль Нео в «Матрице». В 2005 году звезда Киану Ривза появилась на Голливудской Аллее Славы. (по материалам сайта календ)
Видео: MPEG Video 2, 544x576@768x576 (4:3), 25 fps, ~2103 kbps avg
Аудио: 48 kHz, MPEG Audio 2, 2 ch, ~160.00 kbps avg

MediaInfo

Полное имя                               : H:\My Torrents\[apreder]Famous(2006)DVB\[apreder]Keanu_Reeves(2006)DVB.mpg
Формат : MPEG-PS
Размер файла : 363 Мбайт
Продолжительность : 21 м.
Режим общего битрейта : Переменный
Общий поток : 2309 Кбит/сек
Видео
Идентификатор : 224 (0xE0)
Формат : MPEG Video
Версия формата : Version 2
Профиль формата : Main@Main
Параметр BVOP формата : Да
Параметр матрицы формата : Выборочная
Параметр GOP формата : M=3, N=24
Продолжительность : 21 м.
Вид битрейта : Переменный
Битрейт : 2103 Кбит/сек
Ширина : 544 пикселя
Высота : 576 пикселей
Соотношение сторон : 4:3
Частота кадров : 25,000 кадров/сек
Цветовое пространство : YUV
Субдискретизация насыщенности : 4:2:0
Битовая глубина : 8 бит
Тип развёртки : Чересстрочная
Порядок развёртки : Верхнее поле первое
Метод сжатия : С потерями
Бит/(Пиксели*Кадры) : 0.268
Размер потока : 331 Мбайт (91%)
Аудио
Идентификатор : 192 (0xC0)
Формат : MPEG Audio
Версия формата : Version 1
Профиль формата : Layer 2
Продолжительность : 21 м.
Вид битрейта : Постоянный
Битрейт : 160 Кбит/сек
Каналы : 2 канала
Частота : 48,0 КГц
Метод сжатия : С потерями
Размер потока : 25,2 Мбайт (7%)

Скриншоты


Скриншоты анаморфированные


Юэн МакГрегор / Ewan McGregor (2006)

Продолжительность: 00:22:00
Описание: Начало карьеры актера связано с именем Дэнни Бойла — режиссера, который открыл МакГрегора, игравшего до того в театре, для кино. У Бойла же в культовом фильме «На игле» МакГрегор сыграл и свою самую известную главную роль — затмившую и «Мулен Руж», и работу в «Звездных войнах». После каждого своего фильма Юэн, оставляя неизгладимое впечатление, тихонько "исчезает". А когда его пытаются преследовать, он борется с этим, причем, легальными способами. Например, актер участвовал в создании общества "Люди против папарацци". (по материалам сайта киноафиша)
Видео: MPEG Video 2, 544x576@768x576 (4:3), 25 fps, ~2408 kbps avg
Аудио: 48 kHz, MPEG Audio 2, 2 ch, ~160.00 kbps avg

MediaInfo

Полное имя                               : H:\My Torrents\[apreder]Famous(2006)DVB\[apreder]Famous_Ewan_McGregor(2006)DVB.mpg
Формат : MPEG-PS
Размер файла : 412 Мбайт
Продолжительность : 22 м.
Режим общего битрейта : Переменный
Общий поток : 2620 Кбит/сек
Видео
Идентификатор : 224 (0xE0)
Формат : MPEG Video
Версия формата : Version 2
Профиль формата : Main@Main
Параметр BVOP формата : Да
Параметр матрицы формата : Выборочная
Параметр GOP формата : M=3, N=24
Продолжительность : 22 м.
Вид битрейта : Переменный
Битрейт : 2408 Кбит/сек
Ширина : 544 пикселя
Высота : 576 пикселей
Соотношение сторон : 4:3
Частота кадров : 25,000 кадров/сек
Цветовое пространство : YUV
Субдискретизация насыщенности : 4:2:0
Битовая глубина : 8 бит
Тип развёртки : Чересстрочная
Порядок развёртки : Верхнее поле первое
Метод сжатия : С потерями
Бит/(Пиксели*Кадры) : 0.307
Размер потока : 379 Мбайт (92%)
Аудио
Идентификатор : 192 (0xC0)
Формат : MPEG Audio
Версия формата : Version 1
Профиль формата : Layer 2
Продолжительность : 22 м.
Вид битрейта : Постоянный
Битрейт : 160 Кбит/сек
Каналы : 2 канала
Частота : 48,0 КГц
Метод сжатия : С потерями
Размер потока : 25,2 Мбайт (6%)

Скриншоты


Скриншоты анаморфированные


-347/329√
[teatrix.ru].t16492.torrent 
Торрент: Зарегистрирован [ 2016-03-16 12:23 ] · 24BE5982F14ABA8AFA0D1A792E6E785BE951CD56

Скачать .torrent

Скачать

16 KB

Статус: проверено
Скачан: 0 раз
Размер: 1.5 GB
terms.php



Показать сообщения:    

Текущее время: 05-Дек 17:36

Часовой пояс: UTC + 3


Вы не можете начинать темы
Вы не можете отвечать на сообщения
Вы не можете редактировать свои сообщения
Вы не можете удалять свои сообщения
Вы не можете голосовать в опросах
Вы не можете прикреплять файлы к сообщениям
Вы можете скачивать файлы