Музыкальный легион: Группа Take That (Андрей Бугенко) [2009, документальный, творческая биография, DVB]


Статистика раздачи [Обновить пиров]
Размер:  343 MB   |    Зарегистрирован:  8 месяцев 19 дней   |    Скачан:  0 раз

Полного источника не было: Никогда

 
   
 
 
 

[Цитировать]

Музыкальный легион: Группа Take That- Год выпуска: 2009
Страна: Россия
Жанр: документальный, творческая биография
Продолжительность: 00:13:59
Перевод: Не требуется
Русские субтитры: нет
Режиссер: Андрей Бугенко
Описание: Ведущий: Александр Лоевский. "Музыкальный Легион" - программа для тех, у кого есть не только уши, но и глаза. Take That — английская поп-рок группа, которая доминировала в национальных чартах на протяжении пяти лет. Их отличие от других "мальчиковых" групп 1990-х состояло в том, что участники сами сочиняли свои песни. Государственный телеканал BBC назвал Take That "самой успешной британской командой со времен The Beatles". Выпуск рассказывает о возрождении группы, которое в 2008 году было отмечено грандиозным концертом. (анонс канала "Парк развлечений")
Доп. информация: Собственная запись со спутника (канал "Парк развлечений", пакет НТВ+).
Качество: DVB
Формат: MPG
Видео кодек: MPEG2
Аудио кодек: MP2
Видео: MPEG Video 2, 544x576@768x576 (4:3), 25 fps, ~3203 kbps avg
Аудио: 48 kHz, MPEG Audio 2, 2 ch, ~160.00 kbps avg

MediaInfo

Полное имя                               : H:\My Torrents\[apreder]Music_Legion_Take_That(2009)DVB.mpg
Формат : MPEG-PS
Размер файла : 343 Мбайт
Продолжительность : 13 м.
Режим общего битрейта : Переменный
Общий поток : 3431 Кбит/сек
Видео
Идентификатор : 224 (0xE0)
Формат : MPEG Video
Версия формата : Version 2
Профиль формата : Main@Main
Параметр BVOP формата : Да
Параметр матрицы формата : Выборочная
Параметр GOP формата : M=3, N=24
Продолжительность : 13 м.
Вид битрейта : Переменный
Битрейт : 3203 Кбит/сек
Ширина : 544 пикселя
Высота : 576 пикселей
Соотношение сторон : 4:3
Частота кадров : 25,000 кадров/сек
Цветовое пространство : YUV
Субдискретизация насыщенности : 4:2:0
Битовая глубина : 8 бит
Тип развёртки : Чересстрочная
Порядок развёртки : Верхнее поле первое
Метод сжатия : С потерями
Бит/(Пиксели*Кадры) : 0.409
Размер потока : 320 Мбайт (93%)
Аудио
Идентификатор : 192 (0xC0)
Формат : MPEG Audio
Версия формата : Version 1
Профиль формата : Layer 2
Продолжительность : 13 м.
Вид битрейта : Постоянный
Битрейт : 160 Кбит/сек
Каналы : 2 канала
Частота : 48,0 КГц
Метод сжатия : С потерями
Размер потока : 16,0 Мбайт (5%)

Скриншоты


Скриншоты анаморфированные


-349/331√
[teatrix.ru].t16493.torrent 
Торрент: Зарегистрирован [ 2016-03-16 12:26 ] · BCDCE6D3C52CC3E9CBA87B543101184680CEBCE8

Скачать .torrent

Скачать

14 KB

Статус: проверено
Скачан: 0 раз
Размер: 343 MB
terms.php



Быстрый ответ

Имя:

      
Для отправки сообщений необходимо включить JavaScript
Показать сообщения:    

Текущее время: 05-Дек 07:25

Часовой пояс: UTC + 3


Вы можете начинать темы
Вы можете отвечать на сообщения
Вы не можете редактировать свои сообщения
Вы не можете удалять свои сообщения
Вы не можете голосовать в опросах
Вы не можете прикреплять файлы к сообщениям
Вы можете скачивать файлы