(Musique Concrète, Contemporary) [WERGO] [CD] Peter Ruzicka – Metastrofe / Fragment / Stress / In Processo Di Tempo / Bewegung – 1991, FLAC (tracks+.cue), lossless


 

[Цитировать]

Peter RuzickaMetastrofe / Fragment / Stress / In Processo Di Tempo / Bewegung
-
Жанр .............................. Musique Concrète, Contemporary
Страна-производитель ..... Germany
Год издания .................... 1991
Издатель (лейбл) ............. WERGO
Номер по каталогу .......... WER 6071-2
Аудиокодек ..................... FLAC (*.flac)
Тип рипа ......................... tracks+.cue
Битрейт аудио .................. lossless
Продолжительность ......... 0:52:28
Источник рипа ................. собственный рип / CD
Наличие сканов ............... есть
-
Tracklist:
1 Metastrofe 12:48
"...fragment..." (7:12)
2 I. Epigramm 1:13
3 II. Epigramm 0:37
4 III. Epigramm 0:59
5 IV. Epigramm 0:48
6 V. Epigramm 2:52
7 Stress 5:27
8 In Processo Di Tempo... 15:41
9 Bewegung 10:54

-
Cello – Claus Kanngiesser (tracks: 8)
Conductor – Michael Gielen (tracks: 1), Peter Ruzicka (tracks: 8)
Ensemble [Percussion] – Percussionsensemble Siegfried Fink (tracks: 7)
Ensemble [String Quartet] – Westphal-Quartett (tracks: 2 to 6)
Orchestra – Radio-Symphonie-Orchester Berlin (tracks: 1, 8)
-

log

Exact Audio Copy V1.1 from 23. June 2015
EAC extraction logfile from 9. March 2016, 12:02
Peter Ruzicka / Metastrofe
Used drive : ASUS DRW-24B5ST Adapter: 1 ID: 0
Read mode : Secure
Utilize accurate stream : Yes
Defeat audio cache : Yes
Make use of C2 pointers : No
Read offset correction : 6
Overread into Lead-In and Lead-Out : No
Fill up missing offset samples with silence : Yes
Delete leading and trailing silent blocks : No
Null samples used in CRC calculations : Yes
Used interface : Native Win32 interface for Win NT & 2000
Gap handling : Appended to previous track
Used output format : User Defined Encoder
Selected bitrate : 896 kBit/s
Quality : High
Add ID3 tag : No
Command line compressor : C:\EACPortable\App\EAC\FLAC\flac.exe
Additional command line options : -6 -V -T "ARTIST=%artist%" -T "TITLE=%title%" -T "ALBUM=%albumtitle%" -T "DATE=%year%" -T "TRACKNUMBER=%tracknr%" -T "GENRE=%genre%" -T "COMMENT=%comment%" %hascover%--picture="%coverfile%"%hascover% %source% -o %dest%
TOC of the extracted CD
Track | Start | Length | Start sector | End sector
---------------------------------------------------------
1 | 0:00.32 | 12:57.13 | 32 | 58319
2 | 12:57.45 | 1:21.12 | 58320 | 64406
3 | 14:18.57 | 0:43.38 | 64407 | 67669
4 | 15:02.20 | 1:10.00 | 67670 | 72919
5 | 16:12.20 | 0:56.37 | 72920 | 77156
6 | 17:08.57 | 2:59.00 | 77157 | 90581
7 | 20:07.57 | 5:38.50 | 90582 | 115981
8 | 25:46.32 | 15:46.68 | 115982 | 186999
9 | 41:33.25 | 10:54.45 | 187000 | 236094
Track 1
Filename C:\wav\01 - Metastrofe (1971).wav
Pre-gap length 0:00:02.42
Peak level 86.8 %
Extraction speed 2.2 X
Track quality 100.0 %
Test CRC 6D00C46E
Copy CRC 6D00C46E
Accurately ripped (confidence 1) [BE3EB1AD] (AR v1)
Copy OK
Track 2
Filename C:\wav\02 - Fragment (1970) - Epigramm Nr.1.wav
Pre-gap length 0:00:08.66
Peak level 65.3 %
Extraction speed 1.8 X
Track quality 100.0 %
Test CRC 13D56F16
Copy CRC 13D56F16
Accurately ripped (confidence 1) [DB0AAFAA] (AR v1)
Copy OK
Track 3
Filename C:\wav\03 - Fragment (1970) - Epigramm Nr.2.wav
Pre-gap length 0:00:07.82
Peak level 67.7 %
Extraction speed 0.6 X
Track quality 99.7 %
Test CRC 0ABA0702
Copy CRC 0ABA0702
Accurately ripped (confidence 1) [DCF34324] (AR v1)
Copy OK
Track 4
Filename C:\wav\04 - Fragment (1970) - Epigramm Nr.3.wav
Pre-gap length 0:00:06.04
Peak level 35.6 %
Extraction speed 1.8 X
Track quality 100.0 %
Test CRC 80316267
Copy CRC 80316267
Accurately ripped (confidence 1) [04394680] (AR v1)
Copy OK
Track 5
Filename C:\wav\05 - Fragment (1970) - Epigramm Nr.4.wav
Pre-gap length 0:00:10.33
Peak level 66.6 %
Extraction speed 1.7 X
Track quality 100.0 %
Test CRC C69AFAA7
Copy CRC C69AFAA7
Accurately ripped (confidence 1) [675802B0] (AR v1)
Copy OK
Track 6
Filename C:\wav\06 - Fragment (1970) - Epigramm Nr.5.wav
Pre-gap length 0:00:06.82
Peak level 10.9 %
Extraction speed 2.4 X
Track quality 100.0 %
Test CRC 5ACAEE60
Copy CRC 5ACAEE60
Accurately ripped (confidence 1) [53853A12] (AR v1)
Copy OK
Track 7
Filename C:\wav\07 - Stress (1972).wav
Pre-gap length 0:00:06.09
Peak level 85.0 %
Extraction speed 2.8 X
Track quality 100.0 %
Test CRC 744EF872
Copy CRC 744EF872
Cannot be verified as accurate (confidence 1) [1760C5D8], AccurateRip returned [4D211A69] (AR v2)
Copy OK
Track 8
Filename C:\wav\08 - In progresso di tempo (1971).wav
Pre-gap length 0:00:09.49
Peak level 88.2 %
Extraction speed 3.4 X
Track quality 100.0 %
Test CRC CF563234
Copy CRC CF563234
Cannot be verified as accurate (confidence 1) [F246D237], AccurateRip returned [A9F8EFEF] (AR v2)
Copy OK
Track 9
Filename C:\wav\09 - Bewegung (1972).wav
Pre-gap length 0:00:05.06
Peak level 100.0 %
Extraction speed 3.7 X
Track quality 100.0 %
Test CRC B2373085
Copy CRC B2373085
Accurately ripped (confidence 1) [B290F358] (AR v1)
Copy OK
7 track(s) accurately ripped
2 track(s) could not be verified as accurate
Some tracks could not be verified as accurate
No errors occurred
End of status report
---- CUETools DB Plugin V2.1.6
[CTDB TOCID: 3PwKucTMXnS6aJRv0gRTeY2mgZ0-] disk not present in database
Submit result: 3PwKucTMXnS6aJRv0gRTeY2mgZ0- has been uploaded
==== Log checksum E9EB76BB54B9EA06E43F45C12620379BA61E12D113686D8B1A1F030553C31797 ====

cue

REM GENRE Classical
REM DATE 1996
REM DISCID 7E0C4B09
REM COMMENT "ExactAudioCopy v1.1"
PERFORMER "Peter Ruzicka"
TITLE "Metastrofe"
FILE "01 - Metastrofe (1971).wav" WAVE
TRACK 01 AUDIO
TITLE "Metastrofe (1971)"
PERFORMER "Peter Ruzicka"
PREGAP 00:00:32
INDEX 01 00:00:00
TRACK 02 AUDIO
TITLE "Fragment (1970) - Epigramm Nr.1"
PERFORMER "Peter Ruzicka"
INDEX 00 12:48:38
FILE "02 - Fragment (1970) - Epigramm Nr.1.wav" WAVE
INDEX 01 00:00:00
TRACK 03 AUDIO
TITLE "Fragment (1970) - Epigramm Nr.2"
PERFORMER "Peter Ruzicka"
INDEX 00 01:13:25
FILE "03 - Fragment (1970) - Epigramm Nr.2.wav" WAVE
INDEX 01 00:00:00
TRACK 04 AUDIO
TITLE "Fragment (1970) - Epigramm Nr.3"
PERFORMER "Peter Ruzicka"
INDEX 00 00:37:35
FILE "04 - Fragment (1970) - Epigramm Nr.3.wav" WAVE
INDEX 01 00:00:00
TRACK 05 AUDIO
TITLE "Fragment (1970) - Epigramm Nr.4"
PERFORMER "Peter Ruzicka"
INDEX 00 00:59:50
FILE "05 - Fragment (1970) - Epigramm Nr.4.wav" WAVE
INDEX 01 00:00:00
TRACK 06 AUDIO
TITLE "Fragment (1970) - Epigramm Nr.5"
PERFORMER "Peter Ruzicka"
INDEX 00 00:49:50
FILE "06 - Fragment (1970) - Epigramm Nr.5.wav" WAVE
INDEX 01 00:00:00
TRACK 07 AUDIO
TITLE "Stress (1972)"
PERFORMER "Peter Ruzicka"
INDEX 00 02:52:68
FILE "07 - Stress (1972).wav" WAVE
INDEX 01 00:00:00
TRACK 08 AUDIO
TITLE "In progresso di tempo (1971)"
PERFORMER "Peter Ruzicka"
INDEX 00 05:29:13
FILE "08 - In progresso di tempo (1971).wav" WAVE
INDEX 01 00:00:00
TRACK 09 AUDIO
TITLE "Bewegung (1972)"
PERFORMER "Peter Ruzicka"
INDEX 00 15:41:63
FILE "09 - Bewegung (1972).wav" WAVE
INDEX 01 00:00:00



Показать сообщения:    

Текущее время: 06-Дек 15:03

Часовой пояс: UTC + 3


Вы не можете начинать темы
Вы не можете отвечать на сообщения
Вы не можете редактировать свои сообщения
Вы не можете удалять свои сообщения
Вы не можете голосовать в опросах
Вы не можете прикреплять файлы к сообщениям
Вы не можете скачивать файлы