Экология литературы. Новая антология. Французский цикл: Мари Дарьесек / Marie Darrieussecq (Константин Гадаев, Константин Мурашев) [2004, документальный, творческая биография, DVB]


Статистика раздачи [Обновить пиров]
Размер:  827 MB   |    Зарегистрирован:  10 месяцев 1 день   |    Скачан:  0 раз

Полного источника не было: Никогда

 
   
 
 
 

[Цитировать]

Экология литературы. Новая антология. Французский цикл: Мари Дарьёсек
Marie Darrieussecq- Год выпуска: 2004
Страна: Россия, Франция
Жанр: документальный, творческая биография
Продолжительность: 00:39:02
Перевод: Не требуется
Русские субтитры: нет
Режиссер: Константин Гадаев, Константин Мурашев
Описание: Монолог-размышления современной французской писательницы Мари Дарьёсек.
Мари Дарьесек родилась 3 января 1969 года в маленькой деревушке на юге Франции. Вместе с написанием свой дикторской диссертации по литературе написала свою первую книгу "Хрюизмы". После ошеломительного успеха "Хрюизмов" решила оставить преподавательскую работу и занялась писательской деятельностью. Дважды замужем, в 2001 году родила сына, в 2004 году родила дочь. (Издательство Захаров)
Кафка опубликовал свое "Превращение" в 1915 году. "Хрюизмы" Мари Дарьесек вышли на французском языке в 1997, на русском - в 1999. Кафка и Дарьесек пишут именно про таких людей, которым некуда вернуться. Про неуклюжих, добрых членистоногих, про плачущих свиней, про уродливых, никому не нужных изгоев, которых сама природа гонит от моргающего быдла. (xomsa_toft)
Доп. информация: Собственная запись со спутника (канал "Кто есть кто", пакет НТВ+). По сравнению с имеющимся на трекере TVRip, в данной раздаче несжатый цифровой поток лучшего качества.
Сравнение скриншотов
Качество: DVB
Формат: MPG
Видео кодек: MPEG2
Аудио кодек: MP2
Видео: MPEG Video 2, 704x576@768x576 (4:3), 25 fps, ~2710 kbps avg
Аудио: 48 kHz, MPEG Audio 2, 2 ch, ~192.00 kbps avg

MediaInfo

Полное имя                               : H:\My Torrents\[apreder]Ecology_of_the_Fiction_Marie_Darrieussecq(2004)DVB.mpg
Формат : MPEG-PS
Размер файла : 827 Мбайт
Продолжительность : 39 м.
Режим общего битрейта : Переменный
Общий поток : 2961 Кбит/сек
Видео
Идентификатор : 224 (0xE0)
Формат : MPEG Video
Версия формата : Version 2
Профиль формата : Main@Main
Параметр BVOP формата : Да
Параметр матрицы формата : Выборочная
Параметр GOP формата : M=3, N=24
Продолжительность : 39 м.
Вид битрейта : Переменный
Битрейт : 2710 Кбит/сек
Ширина : 704 пикселя
Высота : 576 пикселей
Соотношение сторон : 4:3
Частота кадров : 25,000 кадров/сек
Стандарт вещания : PAL
Цветовое пространство : YUV
Субдискретизация насыщенности : 4:2:0
Битовая глубина : 8 бит
Тип развёртки : Прогрессивная
Порядок развёртки : Верхнее поле первое
Метод сжатия : С потерями
Бит/(Пиксели*Кадры) : 0.267
Размер потока : 757 Мбайт (92%)
Аудио
Идентификатор : 192 (0xC0)
Формат : MPEG Audio
Версия формата : Version 1
Профиль формата : Layer 2
Продолжительность : 39 м.
Вид битрейта : Постоянный
Битрейт : 192 Кбит/сек
Каналы : 2 канала
Частота : 48,0 КГц
Метод сжатия : С потерями
Размер потока : 53,6 Мбайт (6%)

Скриншоты

Скриншоты анаморфированные

-364/346√
[teatrix.ru].t16511.torrent 
Торрент: Зарегистрирован [ 2016-03-16 12:27 ] · F41F794D101007CAB7F4CBCF909C2FDFC7DD73EA

Скачать .torrent

Скачать

17 KB

Статус: проверено
Скачан: 0 раз
Размер: 827 MB
terms.php



Быстрый ответ

Имя:

      
Для отправки сообщений необходимо включить JavaScript
Показать сообщения:    

Текущее время: 18-Янв 02:34

Часовой пояс: UTC + 3


Вы можете начинать темы
Вы можете отвечать на сообщения
Вы не можете редактировать свои сообщения
Вы не можете удалять свои сообщения
Вы не можете голосовать в опросах
Вы не можете прикреплять файлы к сообщениям
Вы можете скачивать файлы