Игра в бисер с Игорем Волгиным. Все 33 передачи сезона 2012 - 2013 (канал Россия Культура) [Ток-шоу, DVB] Обновлено 19.06.2013


Статистика раздачи [Обновить пиров]
Размер:  35.45 GB   |    Зарегистрирован:  8 месяцев 22 дня   |    Скачан:  0 раз

Полного источника не было: Никогда

 
   
 
 
 

[Цитировать]

Игра в бисер с Игорем Волгиным
Год выпуска: 2012 - 2013
Страна: Россия
Жанр: Ток-шоу
Продолжительность: ~ по 00:39:00 выпуск
Перевод: Не требуется
Русские субтитры: нет
Режиссер: канал Россия Культура
Описание: Это своеобразная игра для всех, кто воспринимает мировую литературу как уже написанную книгу, которую никто и никогда не постигнет до конца, и, тем не менее, каждое новое прочтение удивительно. В студии четверо современных мудрецов, среди которых философы и критики, писатели и поэты, актеры и режиссеры, обсуждают произведение мировой литературы и пытаются осуществить его проекцию на современную жизнь.
Доп. информация: Все раздачи программы http://teatrix.ru/tracker.php?nm=%D0%98%D0%B3%D1%80%D0%B0%20%D0%B2%20%D0...0%BD%D1%8B%D0%BC
Качество: DVB
Формат: MPG
Видео кодек: MPEG2
Аудио кодек: MP2
Видео: 768@704x576, 25 fps, MPEG-PS 2879 - 3460 kbps, 0.284 - 0.341 bit/pixel
Аудио: MPEG-1 Layer 2, 48000Hz 192 kb/s , 2 chanal

Список выпусков 2012 год:

2012-09-18. А.С. Пушкин - Медный всадник
2012-09-25. Николай Лесков - Левша
2012-10-02. Данте - Божественная комедия
2012-10-09. Василий Гроссман - Жизнь и судьба
2012-10-16. Эрнест Хемингуэй - Фиеста
2012-10-23. Уильям Шекспир - Король Лир
2012-10-30. Николай Гоголь - Ревизор
2012-11-06. Лирика Марины Цветаевой
2012-11-13. Габриэль Гарсиа Маркес - Сто лет одиночества
2012-11-20. Евгений Замятин - Мы
2012-11-27. Александр Герцен - Былое и думы
2012-12-04. Рэй Брэдбери - Вино из одуванчиков
2012-12-11. Софокл - Царь Эдип
2012-12-18. Александр Дюма - Три мушкетера

Список выпусков 2013 год:

2013-01-15. Лирика Сергея Есенина
2013-01-22. Александр Куприн - Гранатовый браслет
2013-01-29. Уильям Фолкнер - Шум и ярость
2013-02-12. Александр Островский - Гроза
2013-02-19. Мольер - Мизантроп
2013-02-26. Поэзия Иосифа Бродского
2013-03-12. Альбер Камю - Посторонний
2013-03-19. Юрий Олеша - Зависть
2013-03-26. Ги де Мопассан - Жизнь
2013-04-02. Александр Вампилов - Утиная охота
2013-04-09. Ф.М. Достоевский - Идиот
2013-04-16. Чарлз Диккенс - Посмертные записки Пиквикского клуба
2013-04-30. Михаил Салтыков-Щедрин - Господа Головлевы
2013-05-07. Лев Толстой - Анна Каренина
2013-05-14. Андрей Платонов - Котлован
2013-05-21. Эдмон Ростан - Сирано де Бержерак
2013-06-04. Антуан де Сент-Экзюпери - Маленький принц
2013-06-11. Максим Горький - На дне
2013-06-18. Роберт Льюис Стивенсон - Странная история доктора Джекила и мистера Хайда

Список гостей некоторых передач

Куприн
Валерия Пустовая
Юлия Ульянова
Константин Ковалёв-Случевский
Олег Дарк
==============
Есенин
Маша Ватутина
Владимир Кантор
Олег Викманов
Евгений Рейн
===============
Фолкнер
Виталий Бабенко
Дмитрий Харитонов
Иван тделазари
Николай Анастасьев
==============
Софокл
Михаил Швыдкой
Максим Амелин
Николай Гринцер
Светлана Кузнецова
=================
Бродский
Владимр Новиков
Евгений Рейн
Виктор Куллэ
Александр Иличевский
===============
Герцен
Александр Архангельский
Алексей Бородин
Руслан Хестанов
Лев Аннинский
===========
Замятин
Татьяна Щербина
Валерия Пустовая
Олег Викманов
Димтрий Бак
==========
Вампилов
Марина Дмитриевская
марк Розовский
Алина Бурмистрова

MediaInfo Первый выпуск

Полное имя : D:\Игра в бисер c Игорем Волгиным. Сезон 2012-2013\2012-09-18. А.С. Пушкин - Медный всадник.mpg
Формат : MPEG-PS
Размер файла : 911 Мбайт
Продолжительность : 38 м.
Общий поток : 3279 Кбит/сек
Библиотека кодирования : (c) 1998-2009 Womble Multimedia, Inc. / MPEG Video Wizard (03/2009) / Jun 24 2009
Видео
Идентификатор : 224 (0xE0)
Формат : MPEG Video
Версия формата : Version 2
Профиль формата : Main@Main
Параметр BVOP формата : Да
Параметр матрицы формата : По умолчанию
Продолжительность : 38 м.
Вид битрейта : Переменный
Битрейт : 3021 Кбит/сек
Номинальный битрейт : 15,0 Мбит/сек
Ширина : 704 пикс.
Высота : 576 пикс.
Соотношение сторон : 4:3
Частота кадров : 25,000 кадр/сек
Стандарт вещания : PAL
Цветовое пространство : YUV
Подвыборка цветности : 4:2:0
Битовая глубина : 8 бит
Метод сжатия : С потерями
Бит/(Пиксели*Кадры) : 0.298
Размер потока : 840 Мбайт (92%)
Библиотека кодирования : (c) 1998-2009 Womble Multimedia, Inc. / MPEG Video Wizard (03/2009) / Jun 24 2009
Аудио
Идентификатор : 192 (0xC0)
Формат : MPEG Audio
Версия формата : Version 1
Профиль формата : Layer 2
Продолжительность : 38 м.
Вид битрейта : Постоянный
Битрейт : 192 Кбит/сек
Каналы : 2 канала
Частота : 48,0 КГц
Метод сжатия : С потерями
Размер потока : 53,4 Мбайт (6%)

Скриншоты

[teatrix.ru].t16516.torrent 
Торрент: Зарегистрирован [ 2016-03-16 12:27 ] · C9BC7750B364A5835EA6569EA7DEDB56B33F048E

Скачать .torrent

Скачать

92 KB

Статус: проверено
Скачан: 0 раз
Размер: 35.45 GB
terms.php



Быстрый ответ

Имя:

      
Для отправки сообщений необходимо включить JavaScript
Показать сообщения:    

Текущее время: 08-Дек 03:12

Часовой пояс: UTC + 3


Вы можете начинать темы
Вы можете отвечать на сообщения
Вы не можете редактировать свои сообщения
Вы не можете удалять свои сообщения
Вы не можете голосовать в опросах
Вы не можете прикреплять файлы к сообщениям
Вы можете скачивать файлы