Удивительный мир Альбера Кана / The wonderful world of Albert Kahn (Мик Конфри) [2007, искусство, TVRip]


Статистика раздачи [Обновить пиров]
Размер:  2.18 GB   |    Зарегистрирован:  8 месяцев 23 дня   |    Скачан:  0 раз

Полного источника не было: Никогда

 
   
 
 
 

[Цитировать]

Удивительный мир Альбера Кана / The wonderful world of Albert Kahn
Год выпуска: 2007
Страна: Великобритания
Жанр: искусство
Продолжительность: 50 минут
Перевод: Профессиональный (двухголосый)
Русские субтитры: нет
Режиссер: Мик Конфри
Описание: В начале XX века французский миллионер Альбер Кан начал самый грандиозный проект, какой видел мир. Используя кинопленку и новейшую систему цветной фотографии, он стремился сохранить повседневную жизнь людей всего земного шара.
Качество: TVRip
Формат: MP4
Видео кодек: 690x556, XviD, ~ 550-1000 kbps
Аудио кодек: MP3, 128 kbps, 2 ch
К сожалению, 2 и 3 серий нет.

Скриншоты




1- я серия. "Видение мира"
Альбер Кан назвал свой необычный проект "Архивом планеты" и постоянно увеличивал список технических средств для его осуществления. Его фильмы и фотографии запечатлели раз и навсегда мимолетные мгновения уходящего времени: уличные сценки в Париже, сельских рабочих Бретани, последнюю традиционную кельтскую деревню в Ирландии, пейзажи и жителей Корнуолла, последние дни британского общества перед Первой мировой войной.

скрытый текст

Format : AVI
Format/Info : Audio Video Interleave
File size : 257 MiB
Duration : 50mn 47s
Overall bit rate : 707 Kbps
Video
Format : MPEG-4 Visual
Format profile : Streaming Video@L1
Format settings, BVOP : Yes
Format settings, QPel : No
Format settings, GMC : No warppoints
Format settings, Matrix : Default (H.263)
Codec ID : XVID
Codec ID/Hint : XviD
Duration : 50mn 47s
Bit rate : 566 Kbps
Width : 690 pixels
Height : 556 pixels
Display aspect ratio : 5/4
Frame rate : 25.000 fps
Resolution : 24 bits
Colorimetry : 4:2:0
Scan type : Progressive
Bits/(Pixel*Frame) : 0.059
Stream size : 206 MiB (80%)
Writing library : XviD 63
Audio
Format : MPEG Audio
Format version : Version 1
Format profile : Layer 3
Codec ID : 55
Codec ID/Hint : MP3
Duration : 50mn 47s
Bit rate mode : Constant
Bit rate : 128 Kbps
Channel(s) : 2 channels
Sampling rate : 44.1 KHz
Resolution : 16 bits
Stream size : 46.5 MiB (18%)
Alignment : Split accross interleaves
Interleave, duration : 26 ms (0.65 video frame)
2-я серия. "Люди мира"
В 1908 году Альбер Кан и его шофер отправляются в кругосветное путешествие, во время которого они посетили США, Японию и Китай. Эта поездка также давала Кану возможность испытать самую современную фотокамеру, способную делать снимки в реальном цвете.
3-я серия. "Европа на грани войны"
В 1910 фотограф Кана Огуст Леон отправляется в Скандинавские страны - Норвегию и Швецию. На его фотографиях запечатлена сельская Швеция, еще не тронутая урбанизацией, люди в национальных одеждах, традиционный уклад жизни. В 1912 году Кан отправляет фотографов в Италию, которые помимо прекрасной архитектуры зафиксировали насколько бедной была эта страна накануне Первой мировой. Кан был убежденным пацифистом, его задачей было показать людей разных культур, религий и национальностей и способствовать пониманию и толерантности между этими людьми.
4-я серия. "Солдатская история"
С 1914 по 1918 годы фотографы Кана побывали на местах военных сражений, им удалось запечатлеть разрушения войны и ужасные условия, в которых приходилось воевать солдатам.

скрытый текст

Format : AVI
Format/Info : Audio Video Interleave
File size : 379 MiB
Duration : 50mn 4s
Overall bit rate : 1 057 Kbps
Video
Format : MPEG-4 Visual
Format profile : Streaming Video@L1
Format settings, BVOP : Yes
Format settings, QPel : No
Format settings, GMC : No warppoints
Format settings, Matrix : Default (H.263)
Codec ID : XVID
Codec ID/Hint : XviD
Duration : 50mn 4s
Bit rate : 916 Kbps
Width : 690 pixels
Height : 556 pixels
Display aspect ratio : 5/4
Frame rate : 25.000 fps
Resolution : 24 bits
Colorimetry : 4:2:0
Scan type : Progressive
Bits/(Pixel*Frame) : 0.096
Stream size : 328 MiB (87%)
Writing library : XviD 63
Audio
Format : MPEG Audio
Format version : Version 1
Format profile : Layer 3
Codec ID : 55
Codec ID/Hint : MP3
Duration : 50mn 4s
Bit rate mode : Constant
Bit rate : 128 Kbps
Channel(s) : 2 channels
Sampling rate : 44.1 KHz
Resolution : 16 bits
Stream size : 45.8 MiB (12%)
Alignment : Split accross interleaves
Interleave, duration : 26 ms (0.65 video frame)
5-я серия. "История мирного населения"
Фотографии Кана, отображающие историю жизни, героизма и трудностей французов во время Первой мировой, уникальны. Вряд ли где-то в мире существует подобная коллекция цветных фотографий этого периода. Когда боевые действия окончились, фотографы его архива вновь смогли свободно перемещаться по миру. В двадцатые годы Кан увеличил масштаб своего проекта. Его сотрудники отправлялись на юг, в Африку, путешествовали в Азию и совершали вылазки на Ближний Восток.

скрытый текст

Format : AVI
Format/Info : Audio Video Interleave
File size : 354 MiB
Duration : 51mn 51s
Overall bit rate : 954 Kbps
Video
Format : MPEG-4 Visual
Format profile : Streaming Video@L1
Format settings, BVOP : Yes
Format settings, QPel : No
Format settings, GMC : No warppoints
Format settings, Matrix : Default (H.263)
Codec ID : XVID
Codec ID/Hint : XviD
Duration : 51mn 51s
Bit rate : 813 Kbps
Width : 690 pixels
Height : 556 pixels
Display aspect ratio : 5/4
Frame rate : 25.000 fps
Resolution : 24 bits
Colorimetry : 4:2:0
Scan type : Progressive
Bits/(Pixel*Frame) : 0.085
Stream size : 302 MiB (85%)
Writing library : XviD 63
Audio
Format : MPEG Audio
Format version : Version 1
Format profile : Layer 3
Codec ID : 55
Codec ID/Hint : MP3
Duration : 51mn 50s
Bit rate mode : Constant
Bit rate : 128 Kbps
Channel(s) : 2 channels
Sampling rate : 44.1 KHz
Resolution : 16 bits
Stream size : 47.5 MiB (13%)
Alignment : Split accross interleaves
Interleave, duration : 26 ms (0.65 video frame)
6-я серия. "Европа после войны"
В ноябре 1918 года парижане праздновали перемирие, положившее конец войне с Германией. Операторы Альбера Кана снимали сцены празднования на парижских бульварах. Мирная конференция по окончании Первой мировой войны была для Альбера Кана осуществлением его политических идеалов. Здесь люди доброй воли, независимо от их образа мыслей, культурного и исторического происхождения, сошлись вместе. Кан был одним из немногих, кому разрешили направить оператора в знаменитый Зеркальный зал Версаля снимать подписание мирного договора и сам документ крупным планом.

скрытый текст

Format : AVI
Format/Info : Audio Video Interleave
File size : 392 MiB
Duration : 51mn 38s
Overall bit rate : 1 061 Kbps
Video
Format : MPEG-4 Visual
Format profile : Streaming Video@L1
Format settings, BVOP : Yes
Format settings, QPel : No
Format settings, GMC : No warppoints
Format settings, Matrix : Default (H.263)
Codec ID : XVID
Codec ID/Hint : XviD
Duration : 51mn 38s
Bit rate : 921 Kbps
Width : 690 pixels
Height : 556 pixels
Display aspect ratio : 5/4
Frame rate : 25.000 fps
Resolution : 24 bits
Colorimetry : 4:2:0
Scan type : Progressive
Bits/(Pixel*Frame) : 0.096
Stream size : 340 MiB (87%)
Writing library : XviD 63
Audio
Format : MPEG Audio
Format version : Version 1
Format profile : Layer 3
Codec ID : 55
Codec ID/Hint : MP3
Duration : 51mn 38s
Bit rate mode : Constant
Bit rate : 128 Kbps
Channel(s) : 2 channels
Sampling rate : 44.1 KHz
Resolution : 16 bits
Stream size : 47.3 MiB (12%)
Alignment : Split accross interleaves
Interleave, duration : 26 ms (0.65 video frame)
7-я серия. "Экспедиция на Восток"
Альбер Кан был увлечен Востоком. Он снарядил фотографов во Вьетнам, Камбоджу, Индокитай и Японию. Здесь было меньше политики, больше историй о культурных традициях. Операторам удалось снять уникальные кадры, такие, например, как выступление королевского балета в Камбодже. Также они посетили храм Ангкор. А в Токио 1920-х годов запечатлели на пленку увлечение японских девушек европейскими прическами.

скрытый текст

Format : AVI
Format/Info : Audio Video Interleave
File size : 433 MiB
Duration : 51mn 0s
Overall bit rate : 1 186 Kbps
Video
Format : MPEG-4 Visual
Format profile : Streaming Video@L1
Format settings, BVOP : Yes
Format settings, QPel : No
Format settings, GMC : No warppoints
Format settings, Matrix : Default (H.263)
Codec ID : XVID
Codec ID/Hint : XviD
Duration : 51mn 0s
Bit rate : 1 045 Kbps
Width : 690 pixels
Height : 556 pixels
Display aspect ratio : 5/4
Frame rate : 25.000 fps
Resolution : 24 bits
Colorimetry : 4:2:0
Scan type : Progressive
Bits/(Pixel*Frame) : 0.109
Stream size : 381 MiB (88%)
Writing library : XviD 63
Audio
Format : MPEG Audio
Format version : Version 1
Format profile : Layer 3
Codec ID : 55
Codec ID/Hint : MP3
Duration : 51mn 0s
Bit rate mode : Constant
Bit rate : 128 Kbps
Channel(s) : 2 channels
Sampling rate : 44.1 KHz
Resolution : 16 bits
Stream size : 46.7 MiB (11%)
Alignment : Split accross interleaves
Interleave, duration : 26 ms (0.65 video frame)
8-я серия. "Край света"
Появляется первая цветная фотопленка. Кан снаряжает экспедиции в Ньюфаундленд, Алжир, Марокко, Касабланку, Париж. В дальних французских колониях в Африке, фотографы Кана снимают местные племена и ритуалы.

скрытый текст

Format : AVI
Format/Info : Audio Video Interleave
File size : 414 MiB
Duration : 51mn 4s
Overall bit rate : 1 135 Kbps
Video
Format : MPEG-4 Visual
Format profile : Streaming Video@L1
Format settings, BVOP : Yes
Format settings, QPel : No
Format settings, GMC : No warppoints
Format settings, Matrix : Default (H.263)
Codec ID : XVID
Codec ID/Hint : XviD
Duration : 51mn 4s
Bit rate : 994 Kbps
Width : 690 pixels
Height : 556 pixels
Display aspect ratio : 5/4
Frame rate : 25.000 fps
Resolution : 24 bits
Colorimetry : 4:2:0
Scan type : Progressive
Bits/(Pixel*Frame) : 0.104
Stream size : 363 MiB (88%)
Writing library : XviD 63
Audio
Format : MPEG Audio
Format version : Version 1
Format profile : Layer 3
Codec ID : 55
Codec ID/Hint : MP3
Duration : 51mn 4s
Bit rate mode : Constant
Bit rate : 128 Kbps
Channel(s) : 2 channels
Sampling rate : 44.1 KHz
Resolution : 16 bits
Stream size : 46.8 MiB (11%)
Alignment : Split accross interleaves
Interleave, duration : 26 ms (0.65 video frame)
[teatrix.ru].t16520.torrent 
Торрент: Зарегистрирован [ 2016-03-16 12:27 ] · 063982BD4A055A770ACC1ACF1B012B24156340AC

Скачать .torrent

Скачать

23 KB

Статус: проверено
Скачан: 0 раз
Размер: 2.18 GB
terms.php



Быстрый ответ

Имя:

      
Для отправки сообщений необходимо включить JavaScript
Показать сообщения:    

Текущее время: 08-Дек 21:06

Часовой пояс: UTC + 3


Вы можете начинать темы
Вы можете отвечать на сообщения
Вы не можете редактировать свои сообщения
Вы не можете удалять свои сообщения
Вы не можете голосовать в опросах
Вы не можете прикреплять файлы к сообщениям
Вы можете скачивать файлы