Скульптор Манизер (Творческое объединение "Экран" Гостелерадио СССР) [1981, документальный, творческая биография, DVB]


Статистика раздачи [Обновить пиров]
Размер:  1.15 GB   |    Зарегистрирован:  8 месяцев 17 дней   |    Скачан:  0 раз

Полного источника не было: Никогда

 
   
 
 
 

[Цитировать]

Скульптор Манизер- Год выпуска: 1981
Страна: СССР
Жанр: документальный, творческая биография
Продолжительность: 00:42:25
Перевод: Не требуется
Русские субтитры: нет
Режиссер: Творческое объединение "Экран" Гостелерадио СССР
Описание: Фильм рассказывает о народном художнике СССР Матвее Генриховиче Манизере (1891 – 1966). Он прославился своими известными работами в области монументальной скульптуры, в том числе Тарасу Шевченко, Ленину, Куйбышеву и даже народному герою Чапаеву. Широко известна его статуя Зои Космодемьянской в Третьяковской галерее.
В фильме повествуется, как в конце 20-х Манизер работает над серией скульптурных работ на физкультурные темы. Эти скульптуры впоследствии получили распространение в бронзовых и цинковых отливках завода «Красный Выборжец», предназначенных для призов. Одна из этих фигурок позже стала скульптурой знаменитого «Дискобола» (по мотивам скульптуры Мирона, V в. до н. э.), многочисленные копии которой установлены в парках страны. Большие монументальные работы Манизер осуществил для Московского метрополитена. Наиболее известна станция «Площадь Революции», где в углах арочных проходов размещены большие фигуры с атрибутами различных родов деятельности — пограничник с собакой, птичница с курицей, молодой рабочий с шестеренкой. Манизера очень любил Сталин. Он же сделал посмертную маску "вождя народов". Скульптор трижды становился лауреатом Ленинской премии. (анонс канала "Время: далекое и близкое")
Доп. информация: Собственная запись со спутника (канал "Время: далекое и близкое", пакет НТВ+).
Качество: DVB
Формат: MPG
Видео кодек: MPEG2
Аудио кодек: MP2
Видео: MPEG Video 2, 720x576@768x576 (4:3), 25 fps, 3613 kbps avg
Аудио: 48 kHz, MPEG Audio 2, 2 ch, ~192.00 kbps avg

MediaInfo

Полное имя                               : H:\My Torrents\[apreder]Manizer_A_Sculptor(1981).mpg
Формат : MPEG-PS
Размер файла : 1,15 Гбайт
Продолжительность : 42 м.
Режим общего битрейта : Переменный
Общий поток : 3882 Кбит/сек
Видео
Идентификатор : 224 (0xE0)
Формат : MPEG Video
Версия формата : Version 2
Профиль формата : Main@Main
Параметр BVOP формата : Да
Параметр матрицы формата : Выборочная
Параметр GOP формата : M=3, N=12
Продолжительность : 42 м.
Вид битрейта : Переменный
Битрейт : 3613 Кбит/сек
Ширина : 720 пикселей
Высота : 576 пикселей
Соотношение сторон : 4:3
Частота кадров : 25,000 кадров/сек
Стандарт вещания : PAL
Цветовое пространство : YUV
Субдискретизация насыщенности : 4:2:0
Битовая глубина : 8 бит
Тип развёртки : Чересстрочная
Порядок развёртки : Верхнее поле первое
Метод сжатия : С потерями
Бит/(Пиксели*Кадры) : 0.348
Размер потока : 1,07 Гбайт (93%)
Аудио
Идентификатор : 192 (0xC0)
Формат : MPEG Audio
Версия формата : Version 1
Профиль формата : Layer 2
Продолжительность : 42 м.
Вид битрейта : Постоянный
Битрейт : 192 Кбит/сек
Каналы : 2 канала
Частота : 48,0 КГц
Метод сжатия : С потерями
Размер потока : 58,3 Мбайт (5%)

Скриншоты


Скриншоты анаморфированные


-378/360√
[teatrix.ru].t16528.torrent 
Торрент: Зарегистрирован [ 2016-03-16 12:29 ] · A0EBA001AB1BFA919B55FAFBB25482B45E9CA1D4

Скачать .torrent

Скачать

12 KB

Статус: проверено
Скачан: 0 раз
Размер: 1.15 GB
terms.php



Быстрый ответ

Имя:

      
Для отправки сообщений необходимо включить JavaScript
Показать сообщения:    

Текущее время: 03-Дек 01:13

Часовой пояс: UTC + 3


Вы можете начинать темы
Вы можете отвечать на сообщения
Вы не можете редактировать свои сообщения
Вы не можете удалять свои сообщения
Вы не можете голосовать в опросах
Вы не можете прикреплять файлы к сообщениям
Вы можете скачивать файлы