Продать Эрмитаж. Как уходили шедевры [2008, Документальный, DVB]


Статистика раздачи [Обновить пиров]
Размер:  1.48 GB   |    Зарегистрирован:  8 месяцев 21 день   |    Скачан:  0 раз

Полного источника не было: Никогда

 
   
 
 
 

[Цитировать]

Продать Эрмитаж. Как уходили шедевры
Год выпуска: 2008
Страна: Россия
Жанр: Документальный
Продолжительность: 00:43:49
Перевод: Не требуется
Описание: Многие шедевры "Эрмитажа" сейчас находятся в престижных музеях и галереях Запада. Была ли насущная необходимость расплачиваться за индустриализацию страны многочисленными предметами искусства (только живописных полотен было продано 1450)? Ведь средства, которые были в итоге выручены от продажи сокровищ, составили менее одного процента от суммы, требовавшейся на индустриализацию.
Все началось после Гражданской войны. Кремль осознал, что новая власть сделалась хозяином не только земель и фабрик, но и бесчисленных культурных сокровищ. ЧК дается тайная команда. По всей стране начинается формирование "золотых эшелонов". Идет тщательный розыск культурных ценностей. Весной 21-го эшелоны двигаются в путь, люди в кожаных куртках в опломбированных вагонах везут баулы, большие и маленькие чемоданы, заполненные золотой и серебряной церковной утварью, бронзовыми статуэтками, свернутыми в трубочку живописными холстами. Свозят все это в Москву, в Гохран. Здесь поступления сортируют, распределяя предметы искусства по музеям, в основном в "Эрмитаж". Так было сформировано национальное достояние.
В 1928 году большевики берут курс на индустриализацию. Лихорадочно ищут деньги внутри страны. И обращают взор на доставшееся им в наследство "старорежимное" искусство.
Качество: DVB
Формат: MPEG
Видео кодек: MPEG2
Аудио кодек: MPEG1 Layer 2
Видео: MPEG2 Video 720x576 (4:3) 25.00fps ~4 538 Kbps
Аудио: MPEG Audio 48000Hz 2 channels 192 Кбит/сек

MediaInfo

F:\03__Моя планета\222__МПЕГ\Продать Эрмитаж. Как уходили шедевры_DVB by kuzmichm2196 .mpg
General
Complete name : F:\03__Моя планета\222__МПЕГ\Продать Эрмитаж. Как уходили шедевры_DVB by kuzmichm2196 .mpg
Format : MPEG-PS
File size : 1.48 GiB
Duration : 43mn 49s
Overall bit rate mode : Variable
Overall bit rate : 4 826 Kbps
Writing library : (c) 1998-2008 Womble Multimedia, Inc. / MPEG Video Wizard (08/2008) / Aug 25 2008
Video #224
ID : 224 (0xE0)
Format : MPEG Video
Format version : Version 2
Format profile : Main@Main
Format settings, BVOP : Yes
Format settings, Matrix : Custom
Format settings, GOP : M=3, N=24
Duration : 43mn 49s
Bit rate mode : Variable
Bit rate : 4 538 Kbps
Maximum bit rate : 15.0 Mbps
Width : 720 pixels
Height : 576 pixels
Display aspect ratio : 4:3
Frame rate : 25.000 fps
Standard : PAL
Color space : YUV
Chroma subsampling : 4:2:0
Bit depth : 8 bits
Scan type : Interlaced
Scan order : Top Field First
Compression mode : Lossy
Bits/(Pixel*Frame) : 0.438
Stream size : 1.39 GiB (94%)
Writing library : (c) 1998-2008 Womble Multimedia, Inc. / MPEG Video Wizard (08/2008) / Aug 25 2008
Audio #192
ID : 192 (0xC0)
Format : MPEG Audio
Format version : Version 1
Format profile : Layer 2
Duration : 43mn 49s
Bit rate mode : Constant
Bit rate : 192 Kbps
Channel(s) : 2 channels
Sampling rate : 48.0 KHz
Compression mode : Lossy
Stream size : 60.2 MiB (4%)

Скриншоты

[teatrix.ru].t16529.torrent 
Торрент: Зарегистрирован [ 2016-03-16 12:28 ] · 9E9569B33F5BC6E6F3EBCEDDCACE15291D5C4726

Скачать .torrent

Скачать

15 KB

Статус: проверено
Скачан: 0 раз
Размер: 1.48 GB
terms.php



Быстрый ответ

Имя:

      
Для отправки сообщений необходимо включить JavaScript
Показать сообщения:    

Текущее время: 06-Дек 19:00

Часовой пояс: UTC + 3


Вы можете начинать темы
Вы можете отвечать на сообщения
Вы не можете редактировать свои сообщения
Вы не можете удалять свои сообщения
Вы не можете голосовать в опросах
Вы не можете прикреплять файлы к сообщениям
Вы можете скачивать файлы