Салман Рушди: Встреча в Бомбее / Салман Рушди: Встретимся в Бомбее / Rushdie: Meeting in Bombay / Salman Rushdie, l'inde imaginaire (Elisa Mantin / Элиза Мантен) [2011, документальный, творческая биография, DVB] VO (24ДОК)


Статистика раздачи [Обновить пиров]
Размер:  643 MB   |    Зарегистрирован:  8 месяцев 25 дней   |    Скачан:  0 раз

Полного источника не было: Никогда

 
   
 
 
 

[Цитировать]

Салман Рушди: Встреча в Бомбее / Салман Рушди: Встретимся в Бомбее
Rushdie: Meeting in Bombay / Salman Rushdie, l'inde imaginaire- Год выпуска: 2011
Страна: Франция
Жанр: документальный, творческая биография
Продолжительность: 00:43:34
Перевод: Профессиональный (одноголосый) (канал "24ДОК")
Русские субтитры: нет
Режиссер: Elisa Mantin / Элиза Мантен
Описание: Салман Рушди – писатель, родившийся в Индии, в Бомбее. Его роман "Сатанинские стихи" (1988) вызвал яростный протест мусульман. После публикации романа иранский аятолла Хомейни публично проклял Рушди в своей фетве и приговорил его к смертной казни. С тех пор Ружди вынужден скрываться, спасая свою жизнь. Двадцать лет спустя Рушди говорит об Индии и Бомбее, земле своего детства, источнике своего литературного вдохновения. Страна из которой он вынужден был уйти из-за фетвы. (анонс канала "24ДОК")
Доп. информация: запись со спутника (канал "24ДОК"). См. также фильм Элизы Мантен "Салман Рушди" (1999) в цикле "Великие писатели".
Информация: http://www.imdb.com/title/tt1988773/
Качество: DVB
Формат: MPEG-PS (См. при проблемах с просмотром видео)
Видео кодек: MPEG2
Аудио кодек: MP2
Видео: MPEG Video 2, 720x576@768x576 (4:3), 25 fps, ~1829 kbps avg
Аудио: 48 kHz, MPEG Audio 2, 2 ch, ~192.00 kbps avg

MediaInfo

Полное имя                               : H:\My Torrents\[apreder]Rushdie_Meeting_in_Bombay(2011)DVB.mpg
Формат : MPEG-PS
Размер файла : 643 Мбайт
Продолжительность : 43 м.
Режим общего битрейта : Переменный
Общий поток : 2062 Кбит/сек
Видео
Идентификатор : 224 (0xE0)
Формат : MPEG Video
Версия формата : Version 2
Профиль формата : Main@Main
Параметр BVOP формата : Да
Параметр матрицы формата : Выборочная
Параметр GOP формата : M=3, N=24
Продолжительность : 43 м.
Вид битрейта : Переменный
Битрейт : 1829 Кбит/сек
Ширина : 720 пикселей
Высота : 576 пикселей
Соотношение сторон : 4:3
Частота кадров : 25,000 кадров/сек
Стандарт вещания : PAL
Цветовое пространство : YUV
Субдискретизация насыщенности : 4:2:0
Битовая глубина : 8 бит
Тип развёртки : Чересстрочная
Порядок развёртки : Верхнее поле первое
Метод сжатия : С потерями
Бит/(Пиксели*Кадры) : 0.176
Размер потока : 570 Мбайт (89%)
Аудио
Идентификатор : 192 (0xC0)
Формат : MPEG Audio
Версия формата : Version 1
Профиль формата : Layer 2
Продолжительность : 43 м.
Вид битрейта : Постоянный
Битрейт : 192 Кбит/сек
Каналы : 2 канала
Частота : 48,0 КГц
Метод сжатия : С потерями
Размер потока : 59,8 Мбайт (9%)

Скриншоты


Скриншоты анаморфированные


-386/368√
[teatrix.ru].t16531.torrent 
Торрент: Зарегистрирован [ 2016-03-16 12:28 ] · 1B66A5C9066278394609BFC79A4F8147AB103E01

Скачать .torrent

Скачать

13 KB

Статус: проверено
Скачан: 0 раз
Размер: 643 MB
terms.php



Быстрый ответ

Имя:

      
Для отправки сообщений необходимо включить JavaScript
Показать сообщения:    

Текущее время: 10-Дек 19:35

Часовой пояс: UTC + 3


Вы можете начинать темы
Вы можете отвечать на сообщения
Вы не можете редактировать свои сообщения
Вы не можете удалять свои сообщения
Вы не можете голосовать в опросах
Вы не можете прикреплять файлы к сообщениям
Вы можете скачивать файлы