Кинопанорама: Я - Анна Маньяни / Io sono Anna Magnani / My Name is Anna Magnani (Ксения Маринина, Крис Верморкен / Chris Vermorcken) [1980, 1983, документальный, творческая биография, DVB] MVO


Статистика раздачи [Обновить пиров]
Размер:  1.85 GB   |    Зарегистрирован:  8 месяцев 18 дней   |    Скачан:  0 раз

Полного источника не было: Никогда

Личеров:  51  [  0 KB/s  ]   Подробная статистика пиров
 
   
 
 
 

[Цитировать]

Кинопанорама: Я - Анна Маньяни
Io sono Anna Magnani / My Name is Anna Magnani- Год выпуска: фильм - 1980, передача - от 02.04.1983
Страна: СССР, Италия, Бельгия
Жанр: документальный, творческая биография
Продолжительность: 01:27:21 (00:44:05 + 00:43:16)
Перевод: Профессиональный (многоголосый, закадровый)
Русские субтитры: нет
Режиссер: Ксения Маринина ("Кинопанорама"), Крис Верморкен / Chris Vermorcken ("Я - Анна Маньяни")
В ролях: Анна Маньяни, Клод Отан-Лара, Марко Беллоккьо, Лаура Бетти, Сузо Чекки Д'Амико, Эдуардо Де Филиппо, Витторио Де Сика, Федерико Феллини, Джульетта Мазина, Марчелло Мастоянни, Пьер Паоло Пазолини, Роберто Росселлини, Лукино Висконти, Франко Дзеффирелли
Описание: Осенью 1983 года "Кинопанорама" посвятила два выпуска подряд показу документального фильма бельгийских кинематографистов "Я – Анна Маньяни / Io sono Anna Magnani" (1980), рассказывающему об этой выдающейся итальянской актрисе. Показ был приурочен к 10-летию со дня ее смерти. Ведущий передачи кинорежиссер Эльдар Рязанов не только предваряет фильм вступительным словом, но и дает комментарии во время показа. При социализме не все фильмы с участием Анны Маньяни выходили на советский экран, так что комментарии были вполне уместны.
В фильме использованы кадры интервью с самой Анной, рассказывающей о своей жизни, работе в кино, встрече с интересными людьми. О ней нам также поведает множество известных людей, знавших эту восхитительную женщину, ставшую своеобразной "Совестью нации".
Анна Маньяни (1908-1973) прожила чрезвычайно насыщенную жизнь, сыграла в 45 фильмах, достигла мировой славы благодаря органичному исполнению трагикомических ролей женщин из низших слоёв общества в фильмах режиссёров-неореалистов. Она стала первой итальянской актрисой, удостоенной "Оскара" за лучшую женскую роль в фильме "Татуированная роза" (1955) по роману Теннесси Уилльямса. В фильмах Анне Маньяни удалось воплотить широчайший спектр человеческих эмоций — от душевной муки и глубочайшего горя до бесшабашной комедии.
Доп. информация: запись со спутника (канал "Ностальгия"). В отличие от имеющегося на трекере TVRip, в данной раздаче несжатый цифровой поток с большим размером кадра и лучшим качеством.
Сравнение скриншотов
Номинация на приз "Золотой Хьюго" Chicago International Film Festival 1980 за лучший фильм.
Информация: http://www.imdb.com/title/tt0257802/
Качество: DVB
Формат: MPG
Видео кодек: MPEG2
Аудио кодек: MP2
Видео: MPEG Video 2, 704x576@768x576 (4:3), 25 fps, Часть 1 ~2913 kbps avg, Часть 2 ~2638 kbps av
Аудио: 48 kHz, MPEG Audio 2, 2 ch, ~192.00 kbps avg

MediaInfo

Полное имя                               : H:\My Torrents\[apreder]Io_sono_Anna_Magnani(1980)DVB\[apreder]Io_sono_Anna_Magnani_Pt.1(1980)DVB.mpg
Формат : MPEG-PS
Размер файла : 999 Мбайт
Продолжительность : 44 м.
Режим общего битрейта : Переменный
Общий поток : 3168 Кбит/сек
Видео
Идентификатор : 224 (0xE0)
Формат : MPEG Video
Версия формата : Version 2
Профиль формата : Main@Main
Параметр BVOP формата : Да
Параметр матрицы формата : Выборочная
Параметр GOP формата : M=3, N=24
Продолжительность : 44 м.
Вид битрейта : Переменный
Битрейт : 2913 Кбит/сек
Ширина : 704 пикселя
Высота : 576 пикселей
Соотношение сторон : 4:3
Частота кадров : 25,000 кадров/сек
Стандарт вещания : PAL
Цветовое пространство : YUV
Субдискретизация насыщенности : 4:2:0
Битовая глубина : 8 бит
Тип развёртки : Чересстрочная
Порядок развёртки : Верхнее поле первое
Метод сжатия : С потерями
Бит/(Пиксели*Кадры) : 0.287
Размер потока : 919 Мбайт (92%)
Аудио
Идентификатор : 192 (0xC0)
Формат : MPEG Audio
Версия формата : Version 1
Профиль формата : Layer 2
Продолжительность : 44 м.
Вид битрейта : Постоянный
Битрейт : 192 Кбит/сек
Каналы : 2 канала
Частота : 48,0 КГц
Метод сжатия : С потерями
Размер потока : 60,6 Мбайт (6%)
Полное имя : H:\My Torrents\[apreder]Io_sono_Anna_Magnani(1980)DVB\[apreder]Io_sono_Anna_Magnani_Pt.2(1980)DVB.mpg
Формат : MPEG-PS
Размер файла : 894 Мбайт
Продолжительность : 43 м.
Режим общего битрейта : Переменный
Общий поток : 2887 Кбит/сек
Видео
Идентификатор : 224 (0xE0)
Формат : MPEG Video
Версия формата : Version 2
Профиль формата : Main@Main
Параметр BVOP формата : Да
Параметр матрицы формата : Выборочная
Продолжительность : 43 м.
Вид битрейта : Переменный
Битрейт : 2638 Кбит/сек
Ширина : 704 пикселя
Высота : 576 пикселей
Соотношение сторон : 4:3
Частота кадров : 25,000 кадров/сек
Стандарт вещания : PAL
Цветовое пространство : YUV
Субдискретизация насыщенности : 4:2:0
Битовая глубина : 8 бит
Метод сжатия : С потерями
Бит/(Пиксели*Кадры) : 0.260
Размер потока : 817 Мбайт (91%)
Аудио
Идентификатор : 192 (0xC0)
Формат : MPEG Audio
Версия формата : Version 1
Профиль формата : Layer 2
Продолжительность : 43 м.
Вид битрейта : Постоянный
Битрейт : 192 Кбит/сек
Каналы : 2 канала
Частота : 48,0 КГц
Метод сжатия : С потерями
Размер потока : 59,4 Мбайт (7%)

Скриншоты


Скриншоты анаморфированные


-396/378√
[teatrix.ru].t16548.torrent 
Торрент: Зарегистрирован [ 2016-03-16 12:30 ] · 169D34C169714DDDD94EAA5E4F62954EDEB75142

Скачать .torrent

Скачать

19 KB

Статус: проверено
Скачан: 0 раз
Размер: 1.85 GB
terms.php



Показать сообщения:    

Текущее время: 03-Дек 12:39

Часовой пояс: UTC + 3


Вы не можете начинать темы
Вы не можете отвечать на сообщения
Вы не можете редактировать свои сообщения
Вы не можете удалять свои сообщения
Вы не можете голосовать в опросах
Вы не можете прикреплять файлы к сообщениям
Вы можете скачивать файлы