Иллюзион: Микеланджело Антониони. Ночь (Никита Михалков) [1992, документальный, творческая биография, DVB] VO (РТР)


Статистика раздачи [Обновить пиров]
Размер:  223 MB   |    Зарегистрирован:  8 месяцев 23 дня   |    Скачан:  0 раз

Полного источника не было: Никогда

 
   
 
 
 

[Цитировать]

Иллюзион:
Микеланджело Антониони. Ночь- Год выпуска: 1992
Страна: Россия, Италия
Жанр: документальный, творческая биография
Продолжительность: 00:14:10
Перевод: Профессиональный (одноголосый) (перевод интервью Моники Витти)
Русские субтитры: нет
Режиссер: Никита Михалков
В ролях: Никита Михалков, Моника Витти / Monica Vitti
Описание: Передача о творчестве итальянского кинорежиссера Микеланджело Антониони (1912-2007) и его фильме "Ночь" (1961) из неофициальной "трилогии отчуждения" ("Приключение" — "Ночь" — "Затмение"). Действие подчинено классическому принципу трёх единств, однако новаторский художественный язык балансирует на грани абстракции. Фильм получил на Берлинском фестивале 1961 года главный приз — "Золотой медведь".
В 1957 году Моника Витти познакомилась с Микеланджело Антониони и стала его музой и спутницей жизни на долгие годы. Актёрский успех пришёл к ней благодаря 4 фильмам Антониони, снятым с 1960 по 1964 г. Прорывом для Моники Витти стала роль в экзистенциальной драме Антониони "Приключение" (1960). Она снялась также в его фильмах "Ночь" и "Затмение". До самой смерти маэстро Моника Витти оставалась поблизости. Даже ее квартира в Риме располагалась в доме под квартирой Антониони.
Доп. информация: Собственная запись со спутника (канал "Ностальгия", пакет НТВ+). Проект Никиты Михалкова "Иллюзион" выходил в 1992 году на канале РТР и был посвящен немому кино и итальянскому кинематографу.
Качество: DVB
Формат: MPG
Видео кодек: MPEG2
Аудио кодек: MP2
Видео: MPEG Video 2, 704x576@768x576 (4:3), 25 fps, ~1966 kbps avg
Аудио: 48 kHz, MPEG Audio 2, 2 ch, ~192.00 kbps avg

MediaInfo

Полное имя                               : H:\My Torrents\[apreder]Illusion_Michelangelo_Antonioni_La_notte(1992)DVB.mpg
Формат : MPEG-PS
Размер файла : 223 Мбайт
Продолжительность : 14 м.
Режим общего битрейта : Переменный
Общий поток : 2202 Кбит/сек
Видео
Идентификатор : 224 (0xE0)
Формат : MPEG Video
Версия формата : Version 2
Профиль формата : Main@Main
Параметр BVOP формата : Да
Параметр матрицы формата : Выборочная
Продолжительность : 14 м.
Вид битрейта : Переменный
Битрейт : 1966 Кбит/сек
Ширина : 704 пикселя
Высота : 576 пикселей
Соотношение сторон : 4:3
Частота кадров : 25,000 кадров/сек
Стандарт вещания : PAL
Цветовое пространство : YUV
Субдискретизация насыщенности : 4:2:0
Битовая глубина : 8 бит
Метод сжатия : С потерями
Бит/(Пиксели*Кадры) : 0.194
Размер потока : 199 Мбайт (89%)
Аудио
Идентификатор : 192 (0xC0)
Формат : MPEG Audio
Версия формата : Version 1
Профиль формата : Layer 2
Продолжительность : 14 м.
Вид битрейта : Постоянный
Битрейт : 192 Кбит/сек
Каналы : 2 канала
Частота : 48,0 КГц
Метод сжатия : С потерями
Размер потока : 19,5 Мбайт (9%)

Скриншоты

Скриншоты анаморфированные

-397/379√
[teatrix.ru].t16551.torrent 
Торрент: Зарегистрирован [ 2016-03-16 12:27 ] · B37BD4B3F419C077DA4350DC727C0FBF095058FD

Скачать .torrent

Скачать

18 KB

Статус: проверено
Скачан: 0 раз
Размер: 223 MB
terms.php



Показать сообщения:    

Текущее время: 09-Дек 08:53

Часовой пояс: UTC + 3


Вы не можете начинать темы
Вы не можете отвечать на сообщения
Вы не можете редактировать свои сообщения
Вы не можете удалять свои сообщения
Вы не можете голосовать в опросах
Вы не можете прикреплять файлы к сообщениям
Вы можете скачивать файлы