Скульптор Кербель (Адольф Скляренко) [1985, документальный, творческая биография, DVB]


Статистика раздачи [Обновить пиров]
Размер:  1.29 GB   |    Зарегистрирован:  8 месяцев 18 дней   |    Скачан:  0 раз

Полного источника не было: Никогда

 
   
 
 
 

[Цитировать]

Скульптор Кербель- Год выпуска: 1985
Страна: СССР
Жанр: документальный, творческая биография
Продолжительность: 00:49:08
Перевод: Не требуется
Русские субтитры: нет
Режиссер: Адольф Скляренко
Описание: Лев Ефимович Кербель (1917-2003) - советский и российский скульптор. Народный художник СССР (1977). Профессор МГХИ имени В. И. Сурикова (1963), член-корреспондент АХ СССР(1962). Действительный член АХ СССР (1975), вице-президент АХ СССР (1988, с 1992 — РАХ., Герой Социалистического Труда (1985), лауреат Сталинской первой степени (1950) и Ленинской премии (1961).
Л. Е. Кербель автор более 50 памятников и мемориалов, установленных во многих отечественных городах и за рубежом. Им создано большое количество скульптур выдающихся деятелей коммунистической партии, советского государства, военачальникам, героям Советского Союза и Социалистического Труда. Совместно с вице-президентом Академии художеств М. Г. Манизером Кербель выполнялпосмертную маску И. В.Сталина.
На всех этапах своего творчества Л. Е. Кербель реализовывал принципы коммунистической идеологии в искусстве. Важным социальным заказом стал для Кербеля образ Карла Маркса. Памятники на площади Свердлова в Москве (Ленинская премия, 1962) и в центре немецкого города Карл-Маркс-Штадта, за который он был награждён правительством ГДР орденом Карла Маркса, а АХ СССР присудила скульптору Золотую медаль.
Доп. информация: Собственная запись со спутника (канал "Время: далекое и близкое", пакет НТВ+).
Качество: DVB
Формат: MPG
Видео кодек: MPEG2
Аудио кодек: MP2
Видео: MPEG Video 2, 720сx576@768x576 (4:3), 25 fps, ~3491 kbps avg
Аудио: 48 kHz, MPEG Audio 2, 2 ch, ~192.00 kbps avg

MediaInfo

Полное имя                               : H:\My Torrents\[apreder]Kerbel_A_Sculptor(1985).mpg
Формат : MPEG-PS
Размер файла : 1,29 Гбайт
Продолжительность : 49 м.
Режим общего битрейта : Переменный
Общий поток : 3757 Кбит/сек
Видео
Идентификатор : 224 (0xE0)
Формат : MPEG Video
Версия формата : Version 2
Профиль формата : Main@Main
Параметр BVOP формата : Да
Параметр матрицы формата : Выборочная
Параметр GOP формата : M=3, N=12
Продолжительность : 49 м.
Вид битрейта : Переменный
Битрейт : 3491 Кбит/сек
Ширина : 720 пикселей
Высота : 576 пикселей
Соотношение сторон : 4:3
Частота кадров : 25,000 кадров/сек
Стандарт вещания : PAL
Цветовое пространство : YUV
Субдискретизация насыщенности : 4:2:0
Битовая глубина : 8 бит
Тип развёртки : Чересстрочная
Порядок развёртки : Верхнее поле первое
Метод сжатия : С потерями
Бит/(Пиксели*Кадры) : 0.337
Размер потока : 1,20 Гбайт (93%)
Аудио
Идентификатор : 192 (0xC0)
Формат : MPEG Audio
Версия формата : Version 1
Профиль формата : Layer 2
Продолжительность : 49 м.
Вид битрейта : Постоянный
Битрейт : 192 Кбит/сек
Каналы : 2 канала
Частота : 48,0 КГц
Метод сжатия : С потерями
Размер потока : 67,5 Мбайт (5%)

Скриншоты


Скриншоты анаморфированные


-398/380√
[teatrix.ru].t16552.torrent 
Торрент: Зарегистрирован [ 2016-03-16 12:28 ] · 6CA9226A73697688367868A63CBFAC179ADB5F7A

Скачать .torrent

Скачать

13 KB

Статус: проверено
Скачан: 0 раз
Размер: 1.29 GB
terms.php



Быстрый ответ

Имя:

      
Для отправки сообщений необходимо включить JavaScript
Показать сообщения:    

Текущее время: 04-Дек 11:15

Часовой пояс: UTC + 3


Вы можете начинать темы
Вы можете отвечать на сообщения
Вы не можете редактировать свои сообщения
Вы не можете удалять свои сообщения
Вы не можете голосовать в опросах
Вы не можете прикреплять файлы к сообщениям
Вы можете скачивать файлы